Loading...
Error

(Alternative Rock) Пилот - Наша Коллекция (2008) [FLAC (Image+.CUE), Lossless]

Статистика раздачи
Размер:  513 MB   |    Зарегистрирован:  4 года 7 месяцев   |    Скачан:  4 раза

Полного источника не было: 7 дней

Сидов:  0  |  0 KB/s  ]   Личеров:  0  |  0 KB/s  ]

* - сиды/пиры с внешних источников

   
 
Автор Сообщение

Бишеп Пол:Муж

05-Фев-2014 08:06

Пилот - Наша Коллекция

Жанр: Alternative Rock
Год выпуска: 2008
Производитель диска: CD Land CDLREC 33 12008 CD
Аудиокодек: FLAC
Тип рипа: Image+.CUE
Битрейт аудио: Lossless
Продолжительность: 01:10:29
Треклист:
01. Рок
02. Небеса
03. Ч/Б
04. Семь Часов Утра
05. Сегодняшним Днем
06. Тюрьма
07. Осенняя Пора
08. Нет Вестей С Небес
09. Шнурок
10. Небо
11. Неродина
12. Цыганщина
13. Где Ты
14. Братишка
15. Вольная Птица
16. Трамвайная
17. Блюз
18. Волк

Exact Audio Copy V1.0 beta 3 from 29. August 2011

EAC extraction logfile from 30. June 2013, 12:45

Пилот / Наша Коллекция

Used drive : Optiarc DVD RW AD-7760H Adapter: 2 ID: 0

Read mode : Secure
Utilize accurate stream : Yes
Defeat audio cache : Yes
Make use of C2 pointers : No

Read offset correction : 48
Overread into Lead-In and Lead-Out : No
Fill up missing offset samples with silence : Yes
Delete leading and trailing silent blocks : No
Null samples used in CRC calculations : Yes
Used interface : Native Win32 interface for Win NT & 2000

Used output format : User Defined Encoder
Selected bitrate : 896 kBit/s
Quality : High
Add ID3 tag : No
Command line compressor : C:\Program Files (x86)\Exact Audio Copy\Flac\flac.exe
Additional command line options : -V -8 -T "Date=%year%" -T "Genre=%genre%" %source%

TOC of the extracted CD

Track | Start | Length | Start sector | End sector
---------------------------------------------------------
1 | 0:00.00 | 4:17.22 | 0 | 19296
2 | 4:17.22 | 4:17.22 | 19297 | 38593
3 | 8:34.44 | 4:30.03 | 38594 | 58846
4 | 13:04.47 | 4:11.07 | 58847 | 77678
5 | 17:15.54 | 6:11.03 | 77679 | 105506
6 | 23:26.57 | 2:04.66 | 105507 | 114872
7 | 25:31.48 | 1:59.66 | 114873 | 123863
8 | 27:31.39 | 4:39.09 | 123864 | 144797
9 | 32:10.48 | 4:00.60 | 144798 | 162857
10 | 36:11.33 | 6:46.41 | 162858 | 193348
11 | 42:57.74 | 3:33.01 | 193349 | 209324
12 | 46:31.00 | 2:54.62 | 209325 | 222436
13 | 49:25.62 | 3:54.05 | 222437 | 239991
14 | 53:19.67 | 2:23.13 | 239992 | 250729
15 | 55:43.05 | 3:32.28 | 250730 | 266657
16 | 59:15.33 | 4:59.11 | 266658 | 289093
17 | 64:14.44 | 3:29.31 | 289094 | 304799
18 | 67:44.00 | 2:45.66 | 304800 | 317240

Range status and errors

Selected range

Filename D:\2008 - Наша Коллекция.wav

Peak level 100.0 %
Extraction speed 2.3 X
Range quality 100.0 %
Test CRC 2A87CD77
Copy CRC 2A87CD77
Copy OK

No errors occurred

AccurateRip summary
Track 1 not present in database
Track 2 not present in database
Track 3 not present in database
Track 4 not present in database
Track 5 not present in database
Track 6 not present in database
Track 7 not present in database
Track 8 not present in database
Track 9 not present in database
Track 10 not present in database
Track 11 not present in database
Track 12 not present in database
Track 13 not present in database
Track 14 not present in database
Track 15 not present in database
Track 16 not present in database
Track 17 not present in database
Track 18 not present in database
None of the tracks are present in the AccurateRip database

End of status report

==== Log checksum 306392DC562CFC474BE91B43D1DD5E5EA47F8BC62E7FB28FACE34E3E564CB2F0 ====

Этот торрент недоступен для скачивания без регистрации, однако доступен по публичной magnet-ссылке (источники с публичных трекеров). Перед использованием ссылки прочтите, пожалуйста Пользовательское соглашение, а также как можно дольше оставайтесь на раздаче! Для того, чтобы скачать сам торрент-файл (который видит больше источников), а также для того, чтобы поблагодарить релизера, вам необходимо зарегистрироваться. Если регистрироваться лень - вы можете также попробовать скачать релиз по нашим партнерским ссылкам ниже. Кроме того, зарегистрированным пользователям не показывается всплывающая реклама при скачивании.

[underverse.su].t36024.torrent
Трекер: Зарегистрирован   [ 05.02.2014 08:06 ]  

Статус: проверено (by Бишеп at 05.02.2014 08:07)
Поблагодарили: пока никто не поблагодарил...
Тип торрента: публичный - доступные источники с открытых трекеров: 
Размер: 513 MB (занимает 0,11 DVDR, для записи нужно 1 болванка DVDR/RW)
 
 
Похожие темы
Форум Тема Автор Торрент Отв. Посл. сооб.
Зарубежная Pop Музыка (Alternative Pop, Neo Soul, Indie) Amanda Jenssen - Sanger fran on (2015) [MP3, 320 kbps] 90ytr90
1 | 0

0 | 1212

3

23.03.2015 19:02

Зарубежная Pop Музыка (Alternative, Indie) Anna of the North - Lovers (2017) [MP3, 320 kbps CBR] Darkferse
3 | 0

0 | 867

4

13.09.2017 08:47

Зарубежная Pop Музыка (Alternative, Pop, Soul) Plan B - Heaven Before All Hell Breaks Loose (2018) [MP3, 320 kbps CBR] 90ytr90
35 | 0

0 | 353

3

03.06.2018 05:52

Зарубежный Hard, Progressive, Soft, Melodic, AOR, Folk, Classic Rock (Alternative Rock / Progressive Rock) Muse - The 2nd Law (2012) [MP3, 320 kbps] Jimmy
0 | 0

0 | 1429

13

27.09.2012 04:30

Зарубежный Black, Death, Heavy, Thrash, Power, Folk, Gothic Metal (Alternative Metal) This Tragic Day - This Tragic Day (2012) [MP3, 320 kbps] NiiggazCPT
1 | 0

0 | 1597

4

28.10.2012 07:21

Зарубежный Punk, Hardcore, Grunge, Alternative (Alternative) Green Day - Greatest Hits: God's Favorite Band (2017) [iTunes AAC M4A, 256 kbps VBR] Web garry
1 | 0

5 | 3953

1

04.02.2010 17:52

Зарубежный Punk, Hardcore, Grunge, Alternative (Alternative) Red Hot Chili Peppers - Greatest Hits (2003) [iTunes AAC M4A, 256 kbps VBR] Web garry
2 | 0

0 | 2253

3

02.06.2009 18:51

Зарубежный Punk, Hardcore, Grunge, Alternative (Alternative) The Killers - Discography (2004-2013) [iTunes AAC M4A, 256 kbps VBR] Web garry
14 | 6

0 | 6650

4

20.06.2009 12:07

Зарубежный Punk, Hardcore, Grunge, Alternative (Alternative, Pop-Punk, Female Vocal) We Are the In Crowd - Weird Kids [Deluxe Edition] (2014) [MP3, 320 kbps] Jimmy
1 | 0

0 | 1248

3

23.04.2014 15:58

Зарубежный Punk, Hardcore, Grunge, Alternative (Alternative, Pop Punk, Emo) Fireworks - (Oh), Common Life (2014) [MP3, 320 kbps] Jimmy
0 | 1

0 | 1043

4

23.04.2014 15:55


Яндекс.Метрика powered by Sphinx


В Н И М А Н И Е
Сайт не распространяет и не хранит электронные версии произведений, а лишь бесплатно и без коммерческой выгоды (не требуя взамен платы,
SMS и т.д.) предоставляет доступ к создаваемому пользователями каталогу ссылок на торрент-файлы, которые содержат только списки хеш-сумм.
Убедительная просьба с жалобами обращаться напрямую к пользователю, разместившему торрент файл.

Вверх