Loading...
Error

Нью-Йорк, Нью-Йорк / New York, New York (Мартин Скорсезе / Martin Scorsese) [1977 г., драма, музыка, BD-Remux] MVO + DVO + AVO + Original

Статистика раздачи
Размер:  31,68 GB   |    Зарегистрирован:  4 года 6 месяцев   |    Скачан:  3 раза

Полного источника не было: 7 месяцев

Сидов:  0  |  0 KB/s  ]   Личеров:  0  |  0 KB/s  ]

* - сиды/пиры с внешних источников

   
 
Автор Сообщение

garry Пол:Муж

12-Фев-2014 16:47

Нью-Йорк, Нью-Йорк / New York, New York


Год выпуска: 1977
Жанр: драма, музыка
Страна: США
Режиссер: Мартин Скорсезе / Martin Scorsese
В ролях: Роберт Де Ниро, Лайза Миннелли, Лайонел Стэндер, Барри Праймус, Мэри Кэй Плэйс, Джорджи Олд, Джордж Меммоли, Дик Миллер, Мюррей Мостон, Ленни Гейнс
Сюжет фильма:
Джимми, эгоистичный и красноречивый музыкант, встречает Франсин, лаундж-певицу. С этого момента, их отношения перерастают в любовь, а их карьера начнется долгий тяжелый подъем

Качество видео: BD-Remux

Продолжительность: 02:43:10
Формат: MKV
Видео: x264, 1920x1080, 23996 kbps
Аудио #1: русский, многоголосый закадровый [профессиональный, НТВ+], AC3 2.0, 192 kbps
Аудио #2: русский, двухголосый закадровый [профессиональный, Петербург - Пятый канал], AC3 2.0, 192 kbps
Аудио #3: русский, одноголосый закадровый [авторский, Гаврилов], AC3 2.0, 192 kbps
Аудио #4: английский, оригинал, DTS 5.1, 3295 kbps
Субтитры: тип: вшитые отключаемые, английский, формат: SRT

Код:

General
 Unique ID : 223303454879148242087264106575993078406 (0xA7FEAE58E10D3828B33DAF5797258286)
 Complete name : J:\New.York.New.York.1977.1080p.Bluray.AVC.Remux.mkv
 Format : Matroska
 File size : 31.7 GiB
 Duration : 2h 43mn
 Overall bit rate : 27.8 Mbps
 Movie name : New.York.New.York.1977.1080p.Bluray.AVC.Remux
 Encoded date : UTC 2011-06-17 06:41:25
 Writing application : mkvmerge v4.8.0 ('I Got The...') сборка от May 24 2011 03:12:58
 Writing library : libebml v1.2.0 + libmatroska v1.1.0

Video
 ID : 1
 Format : AVC
 Format/Info : Advanced Video Codec
 Format profile : High@L4.1
 Format settings, CABAC : Yes
 Format settings, ReFrames : 4 frames
 Format settings, GOP : M=2, N=25
 Codec ID : V_MPEG4/ISO/AVC
 Duration : 2h 43mn
 Bit rate mode : Variable
 Bit rate : 25.1 Mbps
 Maximum bit rate : 38.0 Mbps
 Width : 1 920 pixels
 Height : 1 080 pixels
 Display aspect ratio : 16:9
 Frame rate : 23.976 fps
 Color space : YUV
 Chroma subsampling : 4:2:0
 Bit depth : 8 bits
 Scan type : Progressive
 Bits/(Pixel*Frame) : 0.505
 Stream size : 28.6 GiB (90%)
 Title : uralmix

Audio #1
 ID : 2
 Format : AC-3
 Format/Info : Audio Coding 3
 Mode extension : CM (complete main)
 Codec ID : A_AC3
 Duration : 2h 43mn
 Bit rate mode : Constant
 Bit rate : 192 Kbps
 Channel(s) : 2 channels
 Channel positions : Front: L R
 Sampling rate : 48.0 KHz
 Bit depth : 16 bits
 Compression mode : Lossy
 Stream size : 224 MiB (1%)
 Title : НТВ+ (Ольга Голованова и Игорь Тарадайкин)
 Language : Russian

Audio #2
 ID : 3
 Format : AC-3
 Format/Info : Audio Coding 3
 Mode extension : CM (complete main)
 Codec ID : A_AC3
 Duration : 2h 43mn
 Bit rate mode : Constant
 Bit rate : 192 Kbps
 Channel(s) : 2 channels
 Channel positions : Front: L R
 Sampling rate : 48.0 KHz
 Bit depth : 16 bits
 Compression mode : Lossy
 Stream size : 224 MiB (1%)
 Title : Петербург - Пятый канал
 Language : Russian

Audio #3
 ID : 4
 Format : AC-3
 Format/Info : Audio Coding 3
 Mode extension : CM (complete main)
 Codec ID : A_AC3
 Duration : 2h 43mn
 Bit rate mode : Constant
 Bit rate : 192 Kbps
 Channel(s) : 2 channels
 Channel positions : Front: L R
 Sampling rate : 48.0 KHz
 Bit depth : 16 bits
 Compression mode : Lossy
 Stream size : 224 MiB (1%)
 Title : авторский - Андрей Гаврилов
 Language : Russian

Audio #4
 ID : 5
 Format : DTS
 Format/Info : Digital Theater Systems
 Format profile : MA / Core
 Codec ID : A_DTS
 Duration : 2h 43mn
 Bit rate mode : Variable
 Bit rate : 1 561 Kbps / 1 510 Kbps
 Channel(s) : 6 channels
 Channel positions : Front: L C R, Side: L R, LFE
 Sampling rate : 48.0 KHz
 Bit depth : 24 bits
 Compression mode : Lossless / Lossy
 Language : English

Text
 ID : 6
 Format : UTF-8
 Codec ID : S_TEXT/UTF8
 Codec ID/Info : UTF-8 Plain Text
 Language : English

Menu
 00:00:00.000 : en:00:00:00.000
 00:07:43.797 : en:00:07:43.797
 00:21:42.676 : en:00:21:42.676
 00:25:57.389 : en:00:25:57.389
 00:29:30.143 : en:00:29:30.143
 00:34:16.137 : en:00:34:16.137
 00:38:15.543 : en:00:38:15.543
 00:42:24.917 : en:00:42:24.917
 00:50:37.326 : en:00:50:37.326
 00:53:22.950 : en:00:53:22.950
 00:58:40.809 : en:00:58:40.809
 01:03:16.042 : en:01:03:16.042
 01:06:52.175 : en:01:06:52.175
 01:12:25.258 : en:01:12:25.258
 01:13:37.163 : en:01:13:37.163
 01:16:53.025 : en:01:16:53.025
 01:21:45.567 : en:01:21:45.567
 01:25:25.787 : en:01:25:25.787
 01:28:46.196 : en:01:28:46.196
 01:33:06.539 : en:01:33:06.539
 01:35:25.720 : en:01:35:25.720
 01:41:05.268 : en:01:41:05.268
 01:49:13.756 : en:01:49:13.756
 01:53:22.921 : en:01:53:22.921
 01:56:42.621 : en:01:56:42.621
 02:02:50.863 : en:02:02:50.863
 02:07:34.856 : en:02:07:34.856
 02:12:05.292 : en:02:12:05.292
 02:25:01.526 : en:02:25:01.526
 02:29:22.787 : en:02:29:22.787
 02:33:25.571 : en:02:33:25.571
 02:40:07.389 : en:02:40:07.389
Релиз: Тарантиныч

picpicpic
Для увеличения картинки щелкните мышкой по превью

Этот торрент недоступен для скачивания без регистрации, однако доступен по публичной magnet-ссылке (источники с публичных трекеров). Перед использованием ссылки прочтите, пожалуйста Пользовательское соглашение, а также как можно дольше оставайтесь на раздаче! Для того, чтобы скачать сам торрент-файл (который видит больше источников), а также для того, чтобы поблагодарить релизера, вам необходимо зарегистрироваться. Если регистрироваться лень - вы можете также попробовать скачать релиз по нашим партнерским ссылкам ниже. Кроме того, зарегистрированным пользователям не показывается всплывающая реклама при скачивании.

[underverse.su].t36268.torrent
Трекер: Зарегистрирован   [ 12.02.2014 16:47 ]  

Статус: проверено (by garry at 12.02.2014 23:58)
Поблагодарили: пока никто не поблагодарил...
Тип торрента: публичный - доступные источники с открытых трекеров: 
Размер: 31,68 GB (занимает 7,24 DVDR, для записи нужно 8 болванок DVDR/RW)
 
 
Похожие темы
Форум Тема Автор Торрент Отв. Посл. сооб.
Классика зарубежного кино Нью-Йорк, Нью-Йорк / New York, New York (Мартин Скорсезе / Martin Scorsese) [1977 г., триллер, мелодрама, криминал, детектив, BDRip] MVO + Original garry
5 | 0

0 | 2390

16

06.01.2014 21:44

* Архив (художественные фильмы) Нью-Йорк, Нью-Йорк / Synecdoche, New York (Чарли Кауфман) [2008 г., Комедия, драма, DVDRip] aweb

1 | 2061

29.08.2010 23:52


Яндекс.Метрика powered by Sphinx


В Н И М А Н И Е
Сайт не распространяет и не хранит электронные версии произведений, а лишь бесплатно и без коммерческой выгоды (не требуя взамен платы,
SMS и т.д.) предоставляет доступ к создаваемому пользователями каталогу ссылок на торрент-файлы, которые содержат только списки хеш-сумм.
Убедительная просьба с жалобами обращаться напрямую к пользователю, разместившему торрент файл.

Вверх