Loading...
Error

(Jazz, Free Improvisation) Wolfgang Haffner (feat. Lars Danielsson, Dominic Miller, Chuck Loeb) - Round Silence (2009) [FLAC (Tracks+.CUE), Lossless]

Статистика раздачи
Размер:  323 MB   |    Зарегистрирован:  4 года 5 месяцев   |    Скачан:  8 раз

Полного источника не было: 4 дня

Сидов:  0  |  0 KB/s  ]   Личеров:  0  |  0 KB/s  ]

* - сиды/пиры с внешних источников

   
 
Автор Сообщение

Бишеп Пол:Муж

17-Фев-2014 16:20

Wolfgang Haffner (feat. Lars Danielsson, Dominic Miller, Chuck Loeb) - Round Silence

Жанр: Jazz, Free Improvisation
Год выпуска: 2009
Производитель диска: The ACT Company ACT 9605-2
Аудиокодек: FLAC
Тип рипа: Tracks+.CUE
Битрейт аудио: Lossless
Продолжительность: 01:00:54
Треклист:
01. Round Silence (Feat. Dominic Miller)
02. Left Side Field
03. It's Not Safe (Feat. Kim Sanders)
04. Azul
05. Stadium Jazz
06. Nightsong (Feat. Chuck Loeb)
07. The Space In Between
08. Tubes (Feat. Nils Lundgren)
09. Ride
10. Wordless
11. The Flow

Exact Audio Copy V0.99 prebeta 5 from 4. May 2009

EAC extraction logfile from 22. November 2009, 16:52

Wolfgang Haffner / Round Silence

Used drive : PLEXTOR DVDR PX-740A Adapter: 0 ID: 1

Read mode : Secure
Utilize accurate stream : Yes
Defeat audio cache : Yes
Make use of C2 pointers : No

Read offset correction : 618
Overread into Lead-In and Lead-Out : No
Fill up missing offset samples with silence : Yes
Delete leading and trailing silent blocks : No
Null samples used in CRC calculations : No
Used interface : Native Win32 interface for Win NT & 2000
Gap handling : Appended to previous track

Used output format : User Defined Encoder
Selected bitrate : 768 kBit/s
Quality : High
Add ID3 tag : Yes
Command line compressor : C:\Program Files\Exact Audio Copy\FLAC\FLAC.EXE
Additional command line options : -6 -V -T "ARTIST=%a" -T "TITLE=%t" -T "ALBUM=%g" -T "DATE=%y" -T "TRACKNUMBER=%n" -T "GENRE=%m" -T "COMMENT=%e" %s -o %d

TOC of the extracted CD

Track | Start | Length | Start sector | End sector
---------------------------------------------------------
1 | 0:00.00 | 6:08.43 | 0 | 27642
2 | 6:08.43 | 6:10.14 | 27643 | 55406
3 | 12:18.57 | 5:01.06 | 55407 | 77987
4 | 17:19.63 | 5:06.29 | 77988 | 100966
5 | 22:26.17 | 5:26.55 | 100967 | 125471
6 | 27:52.72 | 8:04.10 | 125472 | 161781
7 | 35:57.07 | 4:19.14 | 161782 | 181220
8 | 40:16.21 | 4:41.40 | 181221 | 202335
9 | 44:57.61 | 5:16.10 | 202336 | 226045
10 | 50:13.71 | 5:30.43 | 226046 | 250838
11 | 55:44.39 | 5:10.09 | 250839 | 274097

Track 1

Filename P:\Music\Wolfgang Haffner\2\01. Wolfgang Haffner - Round Silence feat. Dominic Miller.wav

Pre-gap length 0:00:02.00

Peak level 93.3 %
Track quality 99.9 %
Test CRC 282FA8FE
Copy CRC 282FA8FE
Accurately ripped (confidence 1) [43BACE34]
Copy OK

Track 2

Filename P:\Music\Wolfgang Haffner\2\02. Wolfgang Haffner - Left Side Of Field.wav

Pre-gap length 0:00:01.00

Peak level 98.8 %
Track quality 100.0 %
Test CRC 76E16F69
Copy CRC 76E16F69
Accurately ripped (confidence 1) [BFC1F54C]
Copy OK

Track 3

Filename P:\Music\Wolfgang Haffner\2\03. Wolfgang Haffner - It's Not Safe feat. Kim Sanders.wav

Pre-gap length 0:00:02.00

Peak level 84.9 %
Track quality 100.0 %
Test CRC 4A893D78
Copy CRC 4A893D78
Accurately ripped (confidence 1) [35432D95]
Copy OK

Track 4

Filename P:\Music\Wolfgang Haffner\2\04. Wolfgang Haffner - Azul.wav

Pre-gap length 0:00:01.00

Peak level 98.8 %
Track quality 100.0 %
Test CRC 3EA48B84
Copy CRC 3EA48B84
Accurately ripped (confidence 1) [D0F6D6DB]
Copy OK

Track 5

Filename P:\Music\Wolfgang Haffner\2\05. Wolfgang Haffner - Stadium Jazz.wav

Pre-gap length 0:00:01.00

Peak level 98.8 %
Track quality 99.9 %
Test CRC 46F50335
Copy CRC 46F50335
Accurately ripped (confidence 1) [D79D8ECE]
Copy OK

Track 6

Filename P:\Music\Wolfgang Haffner\2\06. Wolfgang Haffner - Nightsong feat. Chuck Loeb.wav

Pre-gap length 0:00:01.00

Peak level 98.8 %
Track quality 99.9 %
Test CRC DB029FEF
Copy CRC DB029FEF
Accurately ripped (confidence 1) [695687D8]
Copy OK

Track 7

Filename P:\Music\Wolfgang Haffner\2\07. Wolfgang Haffner - The Space In Between.wav

Pre-gap length 0:00:01.00

Peak level 94.2 %
Track quality 100.0 %
Test CRC E716BA25
Copy CRC E716BA25
Accurately ripped (confidence 1) [481C04C0]
Copy OK

Track 8

Filename P:\Music\Wolfgang Haffner\2\08. Wolfgang Haffner - Tubes feat. Nils Lundgren.wav

Pre-gap length 0:00:01.00

Peak level 87.8 %
Track quality 100.0 %
Test CRC A59EF05E
Copy CRC A59EF05E
Accurately ripped (confidence 1) [EFF78EF1]
Copy OK

Track 9

Filename P:\Music\Wolfgang Haffner\2\09. Wolfgang Haffner - Ride.wav

Pre-gap length 0:00:02.00

Peak level 98.8 %
Track quality 99.9 %
Test CRC 2D5B2CBB
Copy CRC 2D5B2CBB
Accurately ripped (confidence 1) [12D14441]
Copy OK

Track 10

Filename P:\Music\Wolfgang Haffner\2\10. Wolfgang Haffner - Wordless.wav

Pre-gap length 0:00:01.00

Peak level 87.0 %
Track quality 100.0 %
Test CRC 32987BC8
Copy CRC 32987BC8
Accurately ripped (confidence 1) [F7353521]
Copy OK

Track 11

Filename P:\Music\Wolfgang Haffner\2\11. Wolfgang Haffner - The Flow.wav

Pre-gap length 0:00:02.00

Peak level 85.3 %
Track quality 100.0 %
Test CRC 0CD4017A
Copy CRC 0CD4017A
Accurately ripped (confidence 1) [8665E96B]
Copy OK

All tracks accurately ripped

No errors occurred

End of status report
REM GENRE Jazz
REM DATE 2009
REM DISCID 920E460B
REM COMMENT "ExactAudioCopy v0.99pb5"
PERFORMER "Wolfgang Haffner"
TITLE "Round Silence"
FILE "01. Wolfgang Haffner - Round Silence feat. Dominic Miller.wav" WAVE
TRACK 01 AUDIO
TITLE "Round Silence feat. Dominic Miller"
PERFORMER "Wolfgang Haffner"
FLAGS DCP
INDEX 01 00:00:00
TRACK 02 AUDIO
TITLE "Left Side Of Field"
PERFORMER "Wolfgang Haffner"
FLAGS DCP
INDEX 00 06:07:43
FILE "02. Wolfgang Haffner - Left Side Of Field.wav" WAVE
INDEX 01 00:00:00
TRACK 03 AUDIO
TITLE "It's Not Safe feat. Kim Sanders"
PERFORMER "Wolfgang Haffner"
FLAGS DCP
INDEX 00 06:08:14
FILE "03. Wolfgang Haffner - It's Not Safe feat. Kim Sanders.wav" WAVE
INDEX 01 00:00:00
TRACK 04 AUDIO
TITLE "Azul"
PERFORMER "Wolfgang Haffner"
FLAGS DCP
INDEX 00 05:00:06
FILE "04. Wolfgang Haffner - Azul.wav" WAVE
INDEX 01 00:00:00
TRACK 05 AUDIO
TITLE "Stadium Jazz"
PERFORMER "Wolfgang Haffner"
FLAGS DCP
INDEX 00 05:05:29
FILE "05. Wolfgang Haffner - Stadium Jazz.wav" WAVE
INDEX 01 00:00:00
TRACK 06 AUDIO
TITLE "Nightsong feat. Chuck Loeb"
PERFORMER "Wolfgang Haffner"
FLAGS DCP
INDEX 00 05:25:55
FILE "06. Wolfgang Haffner - Nightsong feat. Chuck Loeb.wav" WAVE
INDEX 01 00:00:00
TRACK 07 AUDIO
TITLE "The Space In Between"
PERFORMER "Wolfgang Haffner"
FLAGS DCP
INDEX 00 08:03:10
FILE "07. Wolfgang Haffner - The Space In Between.wav" WAVE
INDEX 01 00:00:00
TRACK 08 AUDIO
TITLE "Tubes feat. Nils Lundgren"
PERFORMER "Wolfgang Haffner"
FLAGS DCP
INDEX 00 04:18:14
FILE "08. Wolfgang Haffner - Tubes feat. Nils Lundgren.wav" WAVE
INDEX 01 00:00:00
TRACK 09 AUDIO
TITLE "Ride"
PERFORMER "Wolfgang Haffner"
FLAGS DCP
INDEX 00 04:39:40
FILE "09. Wolfgang Haffner - Ride.wav" WAVE
INDEX 01 00:00:00
TRACK 10 AUDIO
TITLE "Wordless"
PERFORMER "Wolfgang Haffner"
FLAGS DCP
INDEX 00 05:15:10
FILE "10. Wolfgang Haffner - Wordless.wav" WAVE
INDEX 01 00:00:00
TRACK 11 AUDIO
TITLE "The Flow"
PERFORMER "Wolfgang Haffner"
FLAGS DCP
INDEX 00 05:28:43
FILE "11. Wolfgang Haffner - The Flow.wav" WAVE
INDEX 01 00:00:00

Этот торрент недоступен для скачивания без регистрации, однако доступен по публичной magnet-ссылке (источники с публичных трекеров). Перед использованием ссылки прочтите, пожалуйста Пользовательское соглашение, а также как можно дольше оставайтесь на раздаче! Для того, чтобы скачать сам торрент-файл (который видит больше источников), а также для того, чтобы поблагодарить релизера, вам необходимо зарегистрироваться. Если регистрироваться лень - вы можете также попробовать скачать релиз по нашим партнерским ссылкам ниже. Кроме того, зарегистрированным пользователям не показывается всплывающая реклама при скачивании.

[underverse.su].t36442.torrent
Трекер: Зарегистрирован   [ 17.02.2014 16:20 ]  

Статус: проверено (by Бишеп at 17.02.2014 16:31)
Поблагодарили: 1 человек
Тип торрента: публичный - доступные источники с открытых трекеров: 
Размер: 323 MB (занимает 0,07 DVDR, для записи нужно 1 болванка DVDR/RW)
 
 

8ad_R060d Пол:Муж

17-Фев-2014 19:06

Очень, очень приятный альбом! Я не разбираюсь в джазе, я просто слушаю музыку, и могу сказать честно: я очарован! Спасибо друг, теперь есть возможность послушать в "лосе". :good:

Яндекс.Метрика powered by Sphinx


В Н И М А Н И Е
Сайт не распространяет и не хранит электронные версии произведений, а лишь бесплатно и без коммерческой выгоды (не требуя взамен платы,
SMS и т.д.) предоставляет доступ к создаваемому пользователями каталогу ссылок на торрент-файлы, которые содержат только списки хеш-сумм.
Убедительная просьба с жалобами обращаться напрямую к пользователю, разместившему торрент файл.

Вверх