Loading...
Error

Новенькая / New Girl / Сезон: 3 / Серии: 1-18 (24) (Джейк Кэздан) [2013, Комедия, WEB-DL 720p] DVO (Ozz) + Original + Subs (Rus, Eng)

Статистика раздачи
Размер:  14,44 GB   |    Зарегистрирован:  4 года 9 месяцев   |    Скачан:  2 раза

Полного источника не было: 2 года 9 месяцев

Сидов:  0  |  0 KB/s  ]   Личеров:  0  |  0 KB/s  ]

* - сиды/пиры с внешних источников

   
 
Автор Сообщение

Jimmy Пол:Муж

02-Мар-2014 15:11

New Girl - Third Season
Новенькая - Третий сезон
Год выхода: 2013
Страна: США
Жанр: комедия
Продолжительность: ~24 мин.
Перевод: Профессиональный (двухголосый закадровый) Ozz
Режиссер: Джейк Кэздан
В ролях: Зои Дешанель, Дэймон Уайанс мл., Джэйк М. Джонсон, Джиллиан Вигмэн, Ханна Симона, Макс Гринфилд, Мэри Элизабет Эллис, Стив Баннос, Хейли Норман, Джек Янг и др.
Описание: Комедия о сексуальных отношениях мужчин и женщин. В центре сюжета — Джесс, оптимистичная, но несчастная в любви учительница начальной школы, которая после последнего разрыва въезжает в квартиру, где уже живут три парня.
Озвучка: OZZ (Алексей Серёгин и Елена Каламурза)
Качество: WEB-DL 720p
Формат: MKV
Видео кодек: AVC
Аудио кодек: AC3
Видео: AVC, 1280x718, 23.976 fps, 3904 kbps avg, 0.177 bit/pixel
Аудио #1: Russian 48 kHz, AC3 , 6 channels, 384 kbps |Ozz|
Аудио #2: English 48 kHz, AC3, 6 channels, 384 kbps |Eng|
Субтитры: русские, английские [srt]

Код:

Complete name                            : D:\New.Girl.S03.720p.WEB-DL.Ozz-Tv\New.Girl.S03E01.720p.WEB-DL.Ozz.mkv
Format                                   : Matroska
Format version                           : Version 2
File size                                : 815 MiB
Duration                                 : 23mn 53s
Overall bit rate                         : 4 767 Kbps
Encoded date                             : UTC 2013-09-25 19:13:22
Writing application                      : mkvmerge v5.8.0 ('No Sleep / Pillow') built on Sep  2 2012 15:37:04
Writing library                          : libebml v1.2.3 + libmatroska v1.3.0

Video
ID                                       : 1
Format                                   : AVC
Format/Info                              : Advanced Video Codec
Format profile                           : High@L3.1
Format settings, CABAC                   : No
Format settings, ReFrames                : 2 frames
Codec ID                                 : V_MPEG4/ISO/AVC
Duration                                 : 23mn 53s
Bit rate                                 : 3 904 Kbps
Width                                    : 1 280 pixels
Height                                   : 718 pixels
Display aspect ratio                     : 16:9
Frame rate mode                          : Constant
Frame rate                               : 23.976 fps
Color space                              : YUV
Chroma subsampling                       : 4:2:0
Bit depth                                : 8 bits
Scan type                                : Progressive
Bits/(Pixel*Frame)                       : 0.177
Stream size                              : 667 MiB (82%)
Language                                 : English
Default                                  : Yes
Forced                                   : No
Color primaries                          : BT.709
Transfer characteristics                 : BT.709
Matrix coefficients                      : BT.709

Audio #1
ID                                       : 2
Format                                   : AC-3
Format/Info                              : Audio Coding 3
Mode extension                           : CM (complete main)
Format settings, Endianness              : Big
Codec ID                                 : A_AC3
Duration                                 : 23mn 53s
Bit rate mode                            : Constant
Bit rate                                 : 384 Kbps
Channel(s)                               : 6 channels
Channel positions                        : Front: L C R, Side: L R, LFE
Sampling rate                            : 48.0 KHz
Bit depth                                : 16 bits
Compression mode                         : Lossy
Stream size                              : 65.6 MiB (8%)
Title                                    : Ozz-Tv
Language                                 : Russian
Default                                  : Yes
Forced                                   : No

Audio #2
ID                                       : 3
Format                                   : AC-3
Format/Info                              : Audio Coding 3
Mode extension                           : CM (complete main)
Format settings, Endianness              : Big
Codec ID                                 : A_AC3
Duration                                 : 23mn 53s
Bit rate mode                            : Constant
Bit rate                                 : 384 Kbps
Channel(s)                               : 6 channels
Channel positions                        : Front: L C R, Side: L R, LFE
Sampling rate                            : 48.0 KHz
Bit depth                                : 16 bits
Compression mode                         : Lossy
Stream size                              : 65.6 MiB (8%)
Language                                 : English
Default                                  : No
Forced                                   : No

Text #1
ID                                       : 4
Format                                   : UTF-8
Codec ID                                 : S_TEXT/UTF8
Codec ID/Info                            : UTF-8 Plain Text
Title                                    : Виктория Забузова
Language                                 : Russian
Default                                  : No
Forced                                   : No

Text #2
ID                                       : 5
Format                                   : UTF-8
Codec ID                                 : S_TEXT/UTF8
Codec ID/Info                            : UTF-8 Plain Text
Language                                 : English
Default                                  : No
Forced                                   : No

Внимание! Раздача ведётся путём добавления новых серий; при каждом добавлении создётся новый торрент. Чтобы начать докачку новой серии, пользователям необходимо сделать следующее:
(1) остановить скачивание,
(2) удалить старый торрент у себя из клиента (старые серии удалять не надо),
(3) скачать новый торрент и запустить его у себя в клиенте вместо старого, при этом указать клиенту путь в старую папку куда и должно происходить скачивание новых серий.
Ваш клиент при этом должен произвести хеширование (проверку) старой папки (если не производит сам - помогите ему сделать это), и будет докачивать только те серии которых у вас ещё нет. Старые серии при этом не удаляются, а продолжают раздаваться!Eсли вы уже удалили старые серии, то предотвратить повторную закачку старых серий можно, отжав галочку в соответсвующих местах при запуске нового торрента.

pic pic pic pic
Для увеличения картинки щелкните мышкой по превью

Этот торрент недоступен для скачивания без регистрации, однако доступен по публичной magnet-ссылке (источники с публичных трекеров). Перед использованием ссылки прочтите, пожалуйста Пользовательское соглашение, а также как можно дольше оставайтесь на раздаче! Для того, чтобы скачать сам торрент-файл (который видит больше источников), а также для того, чтобы поблагодарить релизера, вам необходимо зарегистрироваться. Если регистрироваться лень - вы можете также попробовать скачать релиз по нашим партнерским ссылкам ниже. Кроме того, зарегистрированным пользователям не показывается всплывающая реклама при скачивании.

[underverse.su].t36802.torrent
Трекер: Зарегистрирован   [ 10.04.2014 17:34 ]  

Статус: проверено (by Jimmy at 10.04.2014 17:34)
Поблагодарили: пока никто не поблагодарил...
Тип торрента: публичный - доступные источники с открытых трекеров: 
Размер: 14,44 GB (занимает 3,3 DVDR, для записи нужно 4 болванки DVDR/RW)
 
 
Похожие темы
Форум Тема Автор Торрент Отв. Посл. сооб.
Зарубежные сериалы Новенькая / New Girl / Сезон 2 / Серии 1-25 (25) (Джейк Кэздан) [2012 г., Комедия, WEBDLRip] DVO (Ozz) Jimmy
7 | 7

5 | 4854

8

21.05.2013 07:17

Зарубежные сериалы Новенькая / New Girl / Сезон 1 / Серии 1-24 (24) (Джейк Кэздан) [2011 г., комедия, WEBDLRip] DVO (Ozz) Jimmy
3 | 6

0 | 1843

19

21.02.2013 18:45



Последний раз редактировалось: Jimmy (10.04.2014 17:34), всего редактировалось 1 раз

Jimmy Пол:Муж

10-Апр-2014 17:34

Добавлена 18-я серия!

Яндекс.Метрика powered by Sphinx


В Н И М А Н И Е
Сайт не распространяет и не хранит электронные версии произведений, а лишь бесплатно и без коммерческой выгоды (не требуя взамен платы,
SMS и т.д.) предоставляет доступ к создаваемому пользователями каталогу ссылок на торрент-файлы, которые содержат только списки хеш-сумм.
Убедительная просьба с жалобами обращаться напрямую к пользователю, разместившему торрент файл.

Вверх