Loading...
Error

Нечто / The Thing (Маттис ван Хейниген мл. / Matthijs van Heijningen Jr.) [2011 г., ужасы, фантастика, триллер, детектив, BD-Remux] [US]

Статистика раздачи
Размер:  27,25 GB   |    Зарегистрирован:  4 года 5 месяцев   |    Скачан:  7 раз

Полного источника не было: 4 месяца 6 дней

Сидов:  0  |  0 KB/s  ]   Личеров:  0  |  0 KB/s  ]

* - сиды/пиры с внешних источников

   
 
Автор Сообщение

uzi2009 Пол:Муж

05-Мар-2014 12:54

Нечто / The Thing
«Величайшее открытие человечества может стать последним»
Страна: США, Канада
Жанр: Ужасы, фантастика, триллер, детектив
Год выпуска: 2011
Продолжительность: 01:43:00
Перевод: Профессиональный (полное дублирование)
Формат субтитров: srt, pgs
Оригинальная аудиодорожка: Английская
Режиссёр: Маттис ван Хейниген мл. / Matthijs van Heijningen Jr.
В ролях: Мэри Элизабет Уинстэд, Джоэл Эдгертон, Ульрих Томсен, Эрик Кристиан Олсен, Адевале Акиннуойе-Агбадже, Пол Браунштейн, Тронд Эспен Сейм, Ким Баббс, Ёрген Лангхелле, Ян Гуннар Рёйсе
Описание: Научная экспедиция обнаруживает в Антарктике потерпевший крушение инопланетный космический корабль. Группа отчаянных учёных проникает в его недра и неожиданно для самих себя открывает ящик Пандоры. Среди непроходимых снегов и ледяных гор, выпущенное на свободу Нечто устраивает на исследовательской станции жуткую бойню.
Исходник: The Thing 2011 1080p US Bluray VC-1 DTS-HD MA5.1-HDChina
Тип релиза: BD-Remux
Контейнер: MKV
Видео: VC-1 / 30357 kbps / 1080p / 23.976 fps / 16:9 / Advanced Profile 3
Аудио 1: Русский дубляж / DTS-HD MA / 5.1 / 48 kHz / 3695 kbps / 24-bit (DTS Core: 5.1 / 48 kHz / 1509 kbps / 24-bit)
Аудио 2: Английский / DTS-HD MA / 5.1 / 48 kHz / 3600 kbps /24-bit (DTS Core: 5.1 / 48 kHz / 1509 kbps / 24-bit)
Аудио 3: Английский / Dolby Digital / 2.0 /192 kbps / 48 kHz (Commentary with Director Matthijs van Heijningen and producer Eric Newman)
Cубтитры 1: Русские srt по дубляжу (Е.Воронин)
Cубтитры 2: Английские SDH srt
Cубтитры 3: Английские PSDH pgs
Чаптеры: есть

Код:

Полное имя                       : The.Thing.2011.Blu-ray.1080p.VC-1.Rus.Eng.mkv
Формат                           : Matroska
Версия формата                   : Version 2
Размер файла                     : 27,2 Гбайт
Продолжительность                : 1 ч. 43 м.
Режим общего битрейта            : Переменный
Общий поток                      : 37,9 Мбит/сек
Название фильма                  : HANSMER
Дата кодирования                 : UTC 2012-01-20 17:19:03
Программа кодирования            : mkvmerge v5.2.1 ('A Far Off Place') built on Jan  2 2012 23:21:10
Библиотека кодирования           : libebml v1.2.3 + libmatroska v1.3.0

Видео
Идентификатор                    : 1
Формат                           : VC-1
Профиль формата                  : AP@L3
Идентификатор кодека             : WVC1
Идентификатор кодека/Подсказка   : Microsoft
Продолжительность                : 1 ч. 43 м.
Битрейт                          : 32,3 Мбит/сек
Ширина                           : 1920 пикселей
Высота                           : 1080 пикселей
Соотношение сторон               : 16:9
Частота кадров                   : 23,976 кадра/сек
Субдискретизация насыщенности    : 4:2:0
Битовая глубина                  : 8 бит
Тип развёртки                    : Прогрессивная
Метод сжатия                     : С потерями
Бит/(Пиксели*Кадры)              : 0.649
Размер потока                    : 23,2 Гбайт (85%)
Заголовок                        : 30357 kbps
Язык                             : English

Аудио #1
Идентификатор                    : 2
Формат                           : DTS
Формат/Информация                : Digital Theater Systems
Профиль формата                  : MA / Core
Идентификатор кодека             : A_DTS
Продолжительность                : 1 ч. 43 м.
Вид битрейта                     : Переменный
Битрейт                          : 2761 Кбит/сек / 1510 Кбит/сек
Каналы                           : 6 каналов
Расположение каналов             : Front: L C R, Side: L R, LFE
Частота                          : 48,0 КГц
Битовая глубина                  : 24 бит
Метод сжатия                     : Без потерь / Lossy
Заголовок                        : DTS-HD MA 5.1 @ 3695 kbps
Язык                             : Russian

Аудио #2
Идентификатор                    : 3
Формат                           : DTS
Формат/Информация                : Digital Theater Systems
Профиль формата                  : MA / Core
Идентификатор кодека             : A_DTS
Продолжительность                : 1 ч. 43 м.
Вид битрейта                     : Переменный
Битрейт                          : 1903 Кбит/сек / 1510 Кбит/сек
Каналы                           : 6 каналов
Расположение каналов             : Front: L C R, Side: L R, LFE
Частота                          : 48,0 КГц
Битовая глубина                  : 24 бит
Метод сжатия                     : Без потерь / Lossy
Заголовок                        : DTS-HD MA 5.1 @ 3600 kbps
Язык                             : English

Аудио #3
Идентификатор                    : 4
Формат                           : AC-3
Формат/Информация                : Audio Coding 3
Профиль формата                  : Dolby Digital
Расширение режима                : CM (complete main)
Идентификатор кодека             : A_AC3
Продолжительность                : 1 ч. 43 м.
Вид битрейта                     : Постоянный
Битрейт                          : 192 Кбит/сек
Каналы                           : 2 канала
Расположение каналов             : Front: L R
Частота                          : 48,0 КГц
Битовая глубина                  : 16 бит
Метод сжатия                     : С потерями
Размер потока                    : 141 Мбайт (1%)
Заголовок                        : Commentary with Director Matthijs van Heijningen and producer Eric Newman
Язык                             : English

Текст #1
Идентификатор                    : 5
Формат                           : UTF-8
Идентификатор кодека             : S_TEXT/UTF8
Идентификатор кодека/Информация  : UTF-8 Plain Text
Заголовок                        : voronine
Язык                             : Russian

Текст #2
Идентификатор                    : 6
Формат                           : UTF-8
Идентификатор кодека             : S_TEXT/UTF8
Идентификатор кодека/Информация  : UTF-8 Plain Text
Заголовок                        : SDH
Язык                             : English

Текст #3
Идентификатор                    : 7
Формат                           : PGS
Идентификатор кодека             : S_HDMV/PGS
Идентификатор кодека/Информация  : The same subtitle format used on BDs/HD-DVDs
Заголовок                        : PGS PSDH
Язык                             : English

Меню
00:00:00.000                     : en:Chapter 1
00:04:31.897                     : en:Chapter 2
00:10:51.901                     : en:Chapter 3
00:14:41.422                     : en:Chapter 4
00:17:05.775                     : en:Chapter 5
00:20:39.655                     : en:Chapter 6
00:25:09.550                     : en:Chapter 7
00:32:49.634                     : en:Chapter 8
00:38:06.117                     : en:Chapter 9
00:43:02.705                     : en:Chapter 10
00:51:15.739                     : en:Chapter 11
00:55:13.185                     : en:Chapter 12
01:00:04.351                     : en:Chapter 13
01:04:51.805                     : en:Chapter 14
01:09:58.236                     : en:Chapter 15
01:14:39.517                     : en:Chapter 16
01:20:58.520                     : en:Chapter 17
01:24:46.373                     : en:Chapter 18
01:30:30.675                     : en:Chapter 19
01:34:56.316                     : en:Chapter 20
pic pic pic pic

Этот торрент недоступен для скачивания без регистрации, однако доступен по публичной magnet-ссылке (источники с публичных трекеров). Перед использованием ссылки прочтите, пожалуйста Пользовательское соглашение, а также как можно дольше оставайтесь на раздаче! Для того, чтобы скачать сам торрент-файл (который видит больше источников), а также для того, чтобы поблагодарить релизера, вам необходимо зарегистрироваться. Если регистрироваться лень - вы можете также попробовать скачать релиз по нашим партнерским ссылкам ниже. Кроме того, зарегистрированным пользователям не показывается всплывающая реклама при скачивании.

[underverse.su].t36900.torrent
Трекер: Зарегистрирован   [ 05.03.2014 12:54 ]  

Статус: проверено (by 90ytr90 at 05.03.2014 17:13)
Поблагодарили: 2 человека
Тип торрента: публичный - доступные источники с открытых трекеров: 
Размер: 27,25 GB (занимает 6,22 DVDR, для записи нужно 7 болванок DVDR/RW)
 
 
Похожие темы
Форум Тема Автор Торрент Отв. Посл. сооб.
Зарубежное кино [DVDRip, Low-Res HDRip, и т.д.] Нечто / The Thing (Джон Карпентер / John Carpenter) [1982 г., ужасы, фантастика, детектив, НDRip] AVO (Живов) 90ytr90
2 | 0

0 | 493

2

19.11.2016 13:19

Зарубежное кино [HDDVDRip / BDRip / WEB-DL / HDTV 1080/720р] Нечто / The Thing (Маттис ван Хейниген мл.) [2011 г., Ужасы, Фантастика, Триллер, Детекти, BDRip 720p] Dub + Original Чертёнок
3 | 0

0 | 1346

11

23.09.2013 17:02

Зарубежное кино [HDDVDRip / BDRip / WEB-DL / HDTV 1080/720р] Нечто / The Thing (Джон Карпентер / John Carpenter) [1982 г., ужасы, фантастика, детектив, BDRip 1080p] 2xMVO (Киномания, R5) + 3xAVO (Гаврилов, Горчаков, Михалёв) + Original (Eng) + Sub (Rus, Eng) 90ytr90
3 | 0

0 | 530

3

19.11.2016 13:29

Архив (художественные фильмы) Нечто / The Thing (Маттис ван Хейниген мл.) [2011 г., ужасы, фантастика, триллер, детектив, DVDRip] RG NewCinema
0 | 0

1 | 835

7

31.01.2018 13:54

Архив (художественные фильмы) Нечто / The Thing (Маттис ван Хейниген мл) [2011 г., ужасы, фантастика, триллер, детектив, BDRip] Dub + Original 90ytr90
0 | 0

1 | 1486

31

31.01.2018 14:15

8ad_R060d Пол:Муж

05-Мар-2014 18:59

эт по моему ремейк, кажись смотрел что-то похожее, но постарше..
Всё равно спасибо!

uzi2009 Пол:Муж

05-Мар-2014 19:21

я помню вот этот фильм http://www.kinopoisk.ru/film/8366/

8ad_R060d Пол:Муж

05-Мар-2014 20:57

Ага, а я и рассказ читал. Всё удивлялся, как из такой маленькой (по кол-ву страниц) истории можно выжать целый фильм? Впрочем "Джонни-мнемоник" тоже лишь небольшой рассказ, а сделан по нему целый фильм.
Спасибо :wink:

Яндекс.Метрика powered by Sphinx


В Н И М А Н И Е
Сайт не распространяет и не хранит электронные версии произведений, а лишь бесплатно и без коммерческой выгоды (не требуя взамен платы,
SMS и т.д.) предоставляет доступ к создаваемому пользователями каталогу ссылок на торрент-файлы, которые содержат только списки хеш-сумм.
Убедительная просьба с жалобами обращаться напрямую к пользователю, разместившему торрент файл.

Вверх