Loading...
Error

Куда приводят мечты / What Dreams May Come (Винсент Уорд / Vincent Ward) [1998, США, фэнтези, драма, мелодрама, Blu-ray Disc (custom) 1080p] DUB Sub Rus + AVO + Original Eng

Статистика раздачи
Размер:  34,58 GB   |    Зарегистрирован:  4 года 5 месяцев   |    Скачан:  2 раза

Полного источника не было: 28 дней

Сидов:  0  |  0 KB/s  ]   Личеров:  0  |  0 KB/s  ]

* - сиды/пиры с внешних источников

   
 
Автор Сообщение

uzi2009 Пол:Муж

13-Мар-2014 08:13

Куда приводят мечты / What Dreams May Come




Страна: США
Жанр: фэнтези, драма, мелодрама
Год выпуска: 1998
Продолжительность: 1:53:43

Перевод : Профессиональный (полное дублирование)
Перевод : Авторский(одноголосый закадровый) ( А.Кашкин)
Cубтитры: русские, английские, французкие
Оригинальная аудиодорожка: английский

Режиссер:
Винсент Уорд / Vincent Ward
В ролях:
Робин Уильямс (Chris Nielsen), Кьюба Гудинг мл. (Albert Lewis,), Аннабелла Шиорра (Annie Collins-Nielsen), Макс фон Сюдов (The Tracker), Джессика Брукс Грант (Marie Nielsen), Джош Пэддок (Ian Nielsen), Розалинд Чао (Leona), Люсинда Дженни (Mrs. Jacobs), Мэгги МакКарти (Stacey Jacobs), Уильма Бонет (Angie), Мэтт Сэлинджер (Reverend Hanley), Кэрин Спрэг (Best Friend Cindy)

Описание:
После гибели Криса Нилсена в автокатастрофе он, обретя бессмертие, пытается остаться рядом со своей прекрасной, но смертной женой Энни. С помощью дружественного духа, приставленного к нему в качестве проводника, он начинает привыкать к своему новому существованию в окружении, которое иначе как райским не назовешь. Но когда его обезумевшая от горя жена кончает жизнь самоубийством, ее проклинают и навечно изгоняют в ад. Крис изо всех сил пытается отыскать любимую, чтобы всегда быть с ней, но еще никому и никогда не удавалось спасти грешную душу от ужасного, но заслуженного возмездия. Благодаря помощи своих небесных друзей Крис отправляется в самое опасное и мучительное путешествие в своей жизни, точнее, в жизни после смерти




Тип релиза: Blu-ray 1080p
Контейнер: BDMV

Video: VC-1 Video / 29565 kbps / 1080p / 23,976 fps / 16:9 / Advanced Profile 3
Audio: English / DTS-HD Master Audio / 5.1 / 48 kHz / 3134 kbps / 24-bit (DTS Core: 5.1 / 48 kHz / 1509 kbps / 24-bit)
Audio: Russian / DTS-HD Master Audio / 5.1 / 48 kHz / 3986 kbps / 24-bit (DTS Core: 5.1 / 48 kHz / 1509 kbps / 24-bit) ( А.Кашкин)
Audio: Russian / Dolby Digital Audio / 5.1 / 48 kHz / 448 kbps DUB
Audio: English / Dolby Digital Audio / 2.0 / 48 kHz / 192 kbps / Dolby Surround
релиз от:
pic pic pic pic


Диск пересобран из оригинального Blu-ray диска. Используемые программы: BD Reauthor от DVDLogic Software (http://www.dvd-logic.com) и Sonic Scenarist BD. Полностью сохранена структура оригинального Blu-ray диска (включая меню, Pop-up меню, и т.д.). Проверено на компьютере и на медиаплеере Dune HD Max.


Аудио Комментарий
Короткометражный фильм: Куда приводят мечты
Джоэл Хайнек, визуальных эффектов
Джош Розен, арт-директор
Альтернативный финал
Трейлеры
Мои сюжеты закладки
BD-Live Функциональность и News Ticker
Карманный Blu App


Disc Title: WHAT_DREAMS_MAY_COME_BD_HDCLUB_BY_VOLSHEBNIK
Disc Size: 37 130 096 069 bytes
Protection: AACS
BD-Java: Yes
BDInfo: 0.5.2

Notes:

BDINFO HOME AND REPORTS SUBMISSION:
Cinema Squid
http://www.cinemasquid.com/Tools.aspx

INCLUDES FORUMS REPORT FOR:
Unofficial Blu-ray Audio and Video Specifications Thread
http://www.avsforum.com/avs-vb/showthread.php?t=760714
http://forum.blu-ray.com/showthread.php?t=3338

********************
PLAYLIST: 00800.MPLS
********************

Код:

Total   Video
Title                                                           Codec   Length  Movie Size      Disc Size       Bitrate Bitrate Main Audio Track                          Secondary Audio Track
-----                                                           ------  ------- --------------  --------------  ------- ------- ------------------                        ---------------------
00800.MPLS                                                      VC-1    1:53:43 33 804 939 264  37 130 096 069  39,63   29,56   DTS-HD Master 5.1 3134Kbps (48kHz/24-bit)


Код:

DISC INFO:

Disc Title:     WHAT_DREAMS_MAY_COME_BD_HDCLUB_BY_VOLSHEBNIK
Disc Size:      37 130 096 069 bytes
Protection:     AACS
BD-Java:        Yes
BDInfo:         0.5.2

PLAYLIST REPORT:

Name:                   00800.MPLS
Size:                   33 804 939 264 bytes
Length:                 1:53:43 (h:m:s)
Total Bitrate:          39,63 Mbps
Description:

VIDEO:

Codec                   Bitrate             Description
-----                   -------             -----------
VC-1 Video              29565 kbps          1080p / 23,976 fps / 16:9 / Advanced Profile 3

AUDIO:

Codec                           Language        Bitrate         Description
-----                           --------        -------         -----------
DTS-HD Master Audio             English         3134 kbps       5.1 / 48 kHz / 3134 kbps / 24-bit (DTS Core: 5.1 / 48 kHz / 1509 kbps / 24-bit)
DTS-HD Master Audio             Russian         3986 kbps       5.1 / 48 kHz / 3986 kbps / 24-bit (DTS Core: 5.1 / 48 kHz / 1509 kbps / 24-bit)
Dolby Digital Audio             Russian         448 kbps        5.1 / 48 kHz / 448 kbps
Dolby Digital Audio             English         192 kbps        2.0 / 48 kHz / 192 kbps / Dolby Surround

SUBTITLES:

Codec                           Language        Bitrate         Description
-----                           --------        -------         -----------
Presentation Graphics           English         27,613 kbps
Presentation Graphics           French          21,165 kbps
Presentation Graphics           Russian         19,535 kbps
Presentation Graphics           Russian         0,008 kbps
Presentation Graphics           Russian         0,008 kbps

FILES:

Name            Time In         Length          Size            Total Bitrate
----            -------         ------          ----            -------------
00010.M2TS      0:00:00.000     1:53:43.817     33 804 939 264  39 632

CHAPTERS:

Number          Time In         Length          Avg Video Rate  Max 1-Sec Rate  Max 1-Sec Time  Max 5-Sec Rate  Max 5-Sec Time  Max 10Sec Rate  Max 10Sec Time  Avg Frame Size  Max Frame Size  Max Frame Time
------          -------         ------          --------------  --------------  --------------  --------------  --------------  --------------  --------------  --------------  --------------  --------------
1               0:00:00.000     0:04:59.632     29 875 kbps     42 224 kbps     00:01:19.245    35 810 kbps     00:01:29.547    34 300 kbps     00:04:34.357    156 712 bytes   381 365 bytes   00:04:01.991
2               0:04:59.632     0:02:44.289     31 539 kbps     53 214 kbps     00:07:42.920    36 081 kbps     00:07:25.695    35 584 kbps     00:06:40.775    164 428 bytes   443 119 bytes   00:06:38.314
3               0:07:43.921     0:05:05.179     32 460 kbps     41 841 kbps     00:09:42.748    38 008 kbps     00:09:41.205    36 830 kbps     00:09:35.908    169 231 bytes   481 123 bytes   00:08:00.313
4               0:12:49.101     0:07:15.768     32 020 kbps     47 793 kbps     00:12:52.271    37 243 kbps     00:16:16.350    34 740 kbps     00:18:58.387    166 968 bytes   489 264 bytes   00:20:04.369
5               0:20:04.870     0:04:30.561     32 065 kbps     38 852 kbps     00:20:13.503    35 075 kbps     00:20:11.376    34 461 kbps     00:20:05.120    167 171 bytes   480 291 bytes   00:23:58.603
6               0:24:35.432     0:09:39.412     31 138 kbps     45 906 kbps     00:24:41.062    36 027 kbps     00:31:24.507    34 664 kbps     00:31:22.505    162 339 bytes   657 172 bytes   00:25:22.938
7               0:34:14.844     0:07:53.347     31 671 kbps     42 936 kbps     00:37:06.015    36 150 kbps     00:37:12.230    34 644 kbps     00:37:08.267    165 121 bytes   533 848 bytes   00:36:42.783
8               0:42:08.192     0:09:27.525     31 700 kbps     40 205 kbps     00:42:49.733    35 302 kbps     00:51:11.985    34 334 kbps     00:51:10.776    165 270 bytes   516 733 bytes   00:43:08.085
9               0:51:35.717     0:05:42.717     30 793 kbps     43 899 kbps     00:55:04.676    35 568 kbps     00:53:32.626    33 384 kbps     00:55:04.676    160 543 bytes   490 080 bytes   00:56:09.866
10              0:57:18.435     0:02:54.507     29 578 kbps     43 120 kbps     00:57:20.437    34 578 kbps     00:57:19.936    32 170 kbps     00:59:54.549    154 354 bytes   461 046 bytes   00:58:05.440
11              1:00:12.942     0:04:19.801     31 432 kbps     43 439 kbps     01:01:00.156    34 880 kbps     01:04:20.439    33 840 kbps     01:04:15.476    164 188 bytes   360 176 bytes   01:04:00.419
12              1:04:32.743     0:09:07.797     32 146 kbps     41 949 kbps     01:09:44.847    37 187 kbps     01:09:10.354    36 129 kbps     01:09:10.187    167 593 bytes   529 841 bytes   01:07:31.088
13              1:13:40.541     0:06:23.716     31 730 kbps     39 706 kbps     01:16:20.242    35 714 kbps     01:16:43.849    34 886 kbps     01:16:19.157    165 423 bytes   529 048 bytes   01:17:55.170
14              1:20:04.257     0:03:13.109     31 420 kbps     37 787 kbps     01:20:46.341    34 575 kbps     01:22:29.194    34 349 kbps     01:22:24.189    163 811 bytes   432 607 bytes   01:20:31.910
15              1:23:17.367     0:04:20.635     32 990 kbps     44 261 kbps     01:24:28.855    36 567 kbps     01:26:40.320    35 995 kbps     01:26:40.153    171 996 bytes   438 739 bytes   01:23:18.368
16              1:27:38.002     0:07:46.007     30 811 kbps     40 805 kbps     01:30:24.293    35 757 kbps     01:32:04.727    35 230 kbps     01:29:43.378    160 636 bytes   422 864 bytes   01:27:49.097
17              1:35:24.009     0:08:13.659     31 675 kbps     44 600 kbps     01:39:16.241    36 589 kbps     01:35:29.974    34 622 kbps     01:35:24.927    165 139 bytes   569 555 bytes   01:39:00.517
18              1:43:37.669     0:02:23.685     31 235 kbps     39 662 kbps     01:45:31.408    35 143 kbps     01:43:48.430    33 896 kbps     01:43:44.760    163 461 bytes   447 371 bytes   01:43:40.172
19              1:46:01.354     0:07:42.462     2 679 kbps      9 404 kbps      01:53:37.185    5 723 kbps      01:53:37.185    4 634 kbps      01:46:13.825    14 044 bytes    565 282 bytes   01:53:37.811

STREAM DIAGNOSTICS:

File            PID             Type            Codec           Language                Seconds                 Bitrate                 Bytes           Packets
----            ---             ----            -----           --------                --------------          --------------          -------------   -----
00010.M2TS      4113 (0x1011)   0xEA            VC-1                                    6823,692                29 565                  25 218 111 579  137 153 769
00010.M2TS      4352 (0x1100)   0x86            DTS-HD MA       eng (English)           6823,692                3 134                   2 673 245 872   15 601 168
00010.M2TS      4353 (0x1101)   0x81            AC3             rus (Russian)           6823,692                448                     382 077 696     2 132 130
00010.M2TS      4354 (0x1102)   0x86            DTS-HD MA       rus (Russian)           6823,692                3 987                   3 400 342 376   19 545 387
00010.M2TS      4355 (0x1103)   0x81            AC3             eng (English)           6823,692                192                     163 772 160     1 066 225
00010.M2TS      4608 (0x1200)   0x90            PGS             eng (English)           6823,692                28                      23 552 850      136 896
00010.M2TS      4609 (0x1201)   0x90            PGS             fra (French)            6823,692                21                      18 053 441      105 308
00010.M2TS      4610 (0x1202)   0x90            PGS             rus (Russian)           6823,692                20                      16 662 578      97 798
00010.M2TS      4611 (0x1203)   0x90            PGS             rus (Russian)           6823,692                0                       6 762           44
00010.M2TS      4612 (0x1204)   0x90            PGS             rus (Russian)           6823,692                0                       6 762           44


QUICK SUMMARY:

Disc Title: WHAT_DREAMS_MAY_COME_BD_HDCLUB_BY_VOLSHEBNIK
Disc Size: 37 130 096 069 bytes
Protection: AACS
BD-Java: Yes
Playlist: 00800.MPLS
Size: 33 804 939 264 bytes
Length: 1:53:43
Total Bitrate: 39,63 Mbps
Video: VC-1 Video / 29565 kbps / 1080p / 23,976 fps / 16:9 / Advanced Profile 3
Audio: English / DTS-HD Master Audio / 5.1 / 48 kHz / 3134 kbps / 24-bit (DTS Core: 5.1 / 48 kHz / 1509 kbps / 24-bit)
Audio: Russian / DTS-HD Master Audio / 5.1 / 48 kHz / 3986 kbps / 24-bit (DTS Core: 5.1 / 48 kHz / 1509 kbps / 24-bit)
Audio: Russian / Dolby Digital Audio / 5.1 / 48 kHz / 448 kbps
Audio: English / Dolby Digital Audio / 2.0 / 48 kHz / 192 kbps / Dolby Surround
Subtitle: English / 27,613 kbps
Subtitle: French / 21,165 kbps
Subtitle: Russian / 19,535 kbps
Subtitle: Russian / 0,008 kbps
Subtitle: Russian / 0,008 kbps

********************
PLAYLIST: 00801.MPLS
********************

Код:

Total   Video
Title                                                           Codec   Length  Movie Size      Disc Size       Bitrate Bitrate Main Audio Track                          Secondary Audio Track
-----                                                           ------  ------- --------------  --------------  ------- ------- ------------------                        ---------------------
00801.MPLS                                                      VC-1    1:53:43 33 804 939 264  37 130 096 069  39,63   29,56   DTS-HD Master 5.1 3134Kbps (48kHz/24-bit)


Код:

DISC INFO:

Disc Title:     WHAT_DREAMS_MAY_COME_BD_HDCLUB_BY_VOLSHEBNIK
Disc Size:      37 130 096 069 bytes
Protection:     AACS
BD-Java:        Yes
BDInfo:         0.5.2

PLAYLIST REPORT:

Name:                   00801.MPLS
Size:                   33 804 939 264 bytes
Length:                 1:53:43 (h:m:s)
Total Bitrate:          39,63 Mbps
Description:

VIDEO:

Codec                   Bitrate             Description
-----                   -------             -----------
VC-1 Video              29565 kbps          1080p / 23,976 fps / 16:9 / Advanced Profile 3

AUDIO:

Codec                           Language        Bitrate         Description
-----                           --------        -------         -----------
DTS-HD Master Audio             English         3134 kbps       5.1 / 48 kHz / 3134 kbps / 24-bit (DTS Core: 5.1 / 48 kHz / 1509 kbps / 24-bit)
DTS-HD Master Audio             Russian         3986 kbps       5.1 / 48 kHz / 3986 kbps / 24-bit (DTS Core: 5.1 / 48 kHz / 1509 kbps / 24-bit)
Dolby Digital Audio             Russian         448 kbps        5.1 / 48 kHz / 448 kbps
Dolby Digital Audio             English         192 kbps        2.0 / 48 kHz / 192 kbps / Dolby Surround

SUBTITLES:

Codec                           Language        Bitrate         Description
-----                           --------        -------         -----------
Presentation Graphics           English         27,613 kbps
Presentation Graphics           French          21,165 kbps
Presentation Graphics           Russian         19,535 kbps
Presentation Graphics           Russian         0,008 kbps
Presentation Graphics           Russian         0,008 kbps

FILES:

Name            Time In         Length          Size            Total Bitrate
----            -------         ------          ----            -------------
00010.M2TS      0:00:00.000     1:53:43.817     33 804 939 264  39 632

CHAPTERS:

Number          Time In         Length          Avg Video Rate  Max 1-Sec Rate  Max 1-Sec Time  Max 5-Sec Rate  Max 5-Sec Time  Max 10Sec Rate  Max 10Sec Time  Avg Frame Size  Max Frame Size  Max Frame Time
------          -------         ------          --------------  --------------  --------------  --------------  --------------  --------------  --------------  --------------  --------------  --------------
1               0:00:00.000     1:53:43.817     29 565 kbps     53 880 kbps     00:07:42.962    38 008 kbps     00:09:41.205    36 830 kbps     00:09:35.908    154 267 bytes   657 172 bytes   00:25:22.938

STREAM DIAGNOSTICS:

File            PID             Type            Codec           Language                Seconds                 Bitrate                 Bytes           Packets
----            ---             ----            -----           --------                --------------          --------------          -------------   -----
00010.M2TS      4113 (0x1011)   0xEA            VC-1                                    6823,692                29 565                  25 218 111 579  137 153 769
00010.M2TS      4352 (0x1100)   0x86            DTS-HD MA       eng (English)           6823,692                3 134                   2 673 245 872   15 601 168
00010.M2TS      4353 (0x1101)   0x81            AC3             rus (Russian)           6823,692                448                     382 077 696     2 132 130
00010.M2TS      4354 (0x1102)   0x86            DTS-HD MA       rus (Russian)           6823,692                3 987                   3 400 342 376   19 545 387
00010.M2TS      4355 (0x1103)   0x81            AC3             eng (English)           6823,692                192                     163 772 160     1 066 225
00010.M2TS      4608 (0x1200)   0x90            PGS             eng (English)           6823,692                28                      23 552 850      136 896
00010.M2TS      4609 (0x1201)   0x90            PGS             fra (French)            6823,692                21                      18 053 441      105 308
00010.M2TS      4610 (0x1202)   0x90            PGS             rus (Russian)           6823,692                20                      16 662 578      97 798
00010.M2TS      4611 (0x1203)   0x90            PGS             rus (Russian)           6823,692                0                       6 762           44
00010.M2TS      4612 (0x1204)   0x90            PGS             rus (Russian)           6823,692                0                       6 762           44


QUICK SUMMARY:

Disc Title: WHAT_DREAMS_MAY_COME_BD_HDCLUB_BY_VOLSHEBNIK
Disc Size: 37 130 096 069 bytes
Protection: AACS
BD-Java: Yes
Playlist: 00801.MPLS
Size: 33 804 939 264 bytes
Length: 1:53:43
Total Bitrate: 39,63 Mbps
Video: VC-1 Video / 29565 kbps / 1080p / 23,976 fps / 16:9 / Advanced Profile 3
Audio: English / DTS-HD Master Audio / 5.1 / 48 kHz / 3134 kbps / 24-bit (DTS Core: 5.1 / 48 kHz / 1509 kbps / 24-bit)
Audio: Russian / DTS-HD Master Audio / 5.1 / 48 kHz / 3986 kbps / 24-bit (DTS Core: 5.1 / 48 kHz / 1509 kbps / 24-bit)
Audio: Russian / Dolby Digital Audio / 5.1 / 48 kHz / 448 kbps
Audio: English / Dolby Digital Audio / 2.0 / 48 kHz / 192 kbps / Dolby Surround
Subtitle: English / 27,613 kbps
Subtitle: French / 21,165 kbps
Subtitle: Russian / 19,535 kbps
Subtitle: Russian / 0,008 kbps
Subtitle: Russian / 0,008 kbps

********************
PLAYLIST: 00301.MPLS
********************

Код:

Total   Video
Title                                                           Codec   Length  Movie Size      Disc Size       Bitrate Bitrate Main Audio Track                          Secondary Audio Track
-----                                                           ------  ------- --------------  --------------  ------- ------- ------------------                        ---------------------
00301.MPLS                                                      AVC     0:15:17 1 094 461 440   37 130 096 069  9,54    7,00    DTS-HD Master 2.0 1774Kbps (48kHz/24-bit)


Код:

DISC INFO:

Disc Title:     WHAT_DREAMS_MAY_COME_BD_HDCLUB_BY_VOLSHEBNIK
Disc Size:      37 130 096 069 bytes
Protection:     AACS
BD-Java:        Yes
BDInfo:         0.5.2

PLAYLIST REPORT:

Name:                   00301.MPLS
Size:                   1 094 461 440 bytes
Length:                 0:15:17 (h:m:s)
Total Bitrate:          9,54 Mbps
Description:

VIDEO:

Codec                   Bitrate             Description
-----                   -------             -----------
MPEG-4 AVC Video        7000 kbps           480i / 29,970 fps / 16:9 / Main Profile 3.2

AUDIO:

Codec                           Language        Bitrate         Description
-----                           --------        -------         -----------
DTS-HD Master Audio             English         1774 kbps       2.0 / 48 kHz / 1774 kbps / 24-bit (DTS Core: 2.0 / 48 kHz / 1509 kbps / 24-bit)

SUBTITLES:

Codec                           Language        Bitrate         Description
-----                           --------        -------         -----------
Presentation Graphics           English         25,216 kbps
Presentation Graphics           French          20,778 kbps
Presentation Graphics           Portuguese      20,294 kbps

FILES:

Name            Time In         Length          Size            Total Bitrate
----            -------         ------          ----            -------------
50135.M2TS      0:00:00.000     0:15:17.416     1 094 461 440   9 544

CHAPTERS:

Number          Time In         Length          Avg Video Rate  Max 1-Sec Rate  Max 1-Sec Time  Max 5-Sec Rate  Max 5-Sec Time  Max 10Sec Rate  Max 10Sec Time  Avg Frame Size  Max Frame Size  Max Frame Time
------          -------         ------          --------------  --------------  --------------  --------------  --------------  --------------  --------------  --------------  --------------  --------------
1               0:00:00.000     0:15:17.416     7 000 kbps      15 776 kbps     00:11:26.552    12 807 kbps     00:08:01.747    11 030 kbps     00:04:10.617    29 194 bytes    120 907 bytes   00:11:26.619

STREAM DIAGNOSTICS:

File            PID             Type            Codec           Language                Seconds                 Bitrate                 Bytes           Packets
----            ---             ----            -----           --------                --------------          --------------          -------------   -----
50135.M2TS      4113 (0x1011)   0x1B            AVC                                     917,350                 7 000                   802 682 647     4 378 473
50135.M2TS      4352 (0x1100)   0x86            DTS-HD MA       eng (English)           917,350                 1 774                   203 385 088     1 244 063
50135.M2TS      4608 (0x1200)   0x90            PGS             eng (English)           917,350                 25                      2 891 716       17 705
50135.M2TS      4609 (0x1201)   0x90            PGS             fra (French)            917,350                 21                      2 382 755       14 810
50135.M2TS      4610 (0x1202)   0x90            PGS             por (Portuguese)        917,350                 20                      2 327 286       14 502


QUICK SUMMARY:

Disc Title: WHAT_DREAMS_MAY_COME_BD_HDCLUB_BY_VOLSHEBNIK
Disc Size: 37 130 096 069 bytes
Protection: AACS
BD-Java: Yes
Playlist: 00301.MPLS
Size: 1 094 461 440 bytes
Length: 0:15:17
Total Bitrate: 9,54 Mbps
Video: MPEG-4 AVC Video / 7000 kbps / 480i / 29,970 fps / 16:9 / Main Profile 3.2
Audio: English / DTS-HD Master Audio / 2.0 / 48 kHz / 1774 kbps / 24-bit (DTS Core: 2.0 / 48 kHz / 1509 kbps / 24-bit)
Subtitle: English / 25,216 kbps
Subtitle: French / 20,778 kbps
Subtitle: Portuguese / 20,294 kbps

********************
PLAYLIST: 00300.MPLS
********************

Код:

Total   Video
Title                                                           Codec   Length  Movie Size      Disc Size       Bitrate Bitrate Main Audio Track                          Secondary Audio Track
-----                                                           ------  ------- --------------  --------------  ------- ------- ------------------                        ---------------------
00300.MPLS                                                      AVC     0:06:35 380 485 632     37 130 096 069  7,70    7,00    DTS 2.0 256Kbps (48kHz/16-bit)


Код:

DISC INFO:

Disc Title:     WHAT_DREAMS_MAY_COME_BD_HDCLUB_BY_VOLSHEBNIK
Disc Size:      37 130 096 069 bytes
Protection:     AACS
BD-Java:        Yes
BDInfo:         0.5.2

PLAYLIST REPORT:

Name:                   00300.MPLS
Size:                   380 485 632 bytes
Length:                 0:06:35 (h:m:s)
Total Bitrate:          7,70 Mbps
Description:

VIDEO:

Codec                   Bitrate             Description
-----                   -------             -----------
MPEG-4 AVC Video        6999 kbps           480i / 29,970 fps / 16:9 / Main Profile 3.2

AUDIO:

Codec                           Language        Bitrate         Description
-----                           --------        -------         -----------
DTS Audio                       English         256 kbps        2.0 / 48 kHz / 256 kbps / 16-bit

SUBTITLES:

Codec                           Language        Bitrate         Description
-----                           --------        -------         -----------
Presentation Graphics           English         9,358 kbps
Presentation Graphics           French          7,523 kbps
Presentation Graphics           Portuguese      7,323 kbps

FILES:

Name            Time In         Length          Size            Total Bitrate
----            -------         ------          ----            -------------
00011.M2TS      0:00:00.000     0:06:35.395     380 485 632     7 698

CHAPTERS:

Number          Time In         Length          Avg Video Rate  Max 1-Sec Rate  Max 1-Sec Time  Max 5-Sec Rate  Max 5-Sec Time  Max 10Sec Rate  Max 10Sec Time  Avg Frame Size  Max Frame Size  Max Frame Time
------          -------         ------          --------------  --------------  --------------  --------------  --------------  --------------  --------------  --------------  --------------  --------------
1               0:00:00.000     0:06:35.395     6 999 kbps      11 338 kbps     00:05:12.478    9 987 kbps      00:05:01.868    9 320 kbps      00:05:03.469    29 190 bytes    80 702 bytes    00:02:04.057

STREAM DIAGNOSTICS:

File            PID             Type            Codec           Language                Seconds                 Bitrate                 Bytes           Packets
----            ---             ----            -----           --------                --------------          --------------          -------------   -----
00011.M2TS      4113 (0x1011)   0x1B            AVC                                     395,328                 7 000                   345 904 024     1 886 806
00011.M2TS      4352 (0x1100)   0x82            DTS             eng (English)           395,328                 255                     12 603 460      74 138
00011.M2TS      4608 (0x1200)   0x90            PGS             eng (English)           395,328                 9                       462 516         2 895
00011.M2TS      4609 (0x1201)   0x90            PGS             fra (French)            395,328                 8                       371 835         2 316
00011.M2TS      4610 (0x1202)   0x90            PGS             por (Portuguese)        395,328                 7                       361 935         2 263


QUICK SUMMARY:

Disc Title: WHAT_DREAMS_MAY_COME_BD_HDCLUB_BY_VOLSHEBNIK
Disc Size: 37 130 096 069 bytes
Protection: AACS
BD-Java: Yes
Playlist: 00300.MPLS
Size: 380 485 632 bytes
Length: 0:06:35
Total Bitrate: 7,70 Mbps
Video: MPEG-4 AVC Video / 6999 kbps / 480i / 29,970 fps / 16:9 / Main Profile 3.2
Audio: English / DTS Audio / 2.0 / 48 kHz / 256 kbps / 16-bit
Subtitle: English / 9,358 kbps
Subtitle: French / 7,523 kbps
Subtitle: Portuguese / 7,323 kbps

********************
PLAYLIST: 00302.MPLS
********************

Код:

Total   Video
Title                                                           Codec   Length  Movie Size      Disc Size       Bitrate Bitrate Main Audio Track                          Secondary Audio Track
-----                                                           ------  ------- --------------  --------------  ------- ------- ------------------                        ---------------------
00302.MPLS                                                      AVC     0:04:47 327 911 424     37 130 096 069  9,13    7,61    DTS 2.0 256Kbps (48kHz/16-bit)


Код:

DISC INFO:

Disc Title:     WHAT_DREAMS_MAY_COME_BD_HDCLUB_BY_VOLSHEBNIK
Disc Size:      37 130 096 069 bytes
Protection:     AACS
BD-Java:        Yes
BDInfo:         0.5.2

PLAYLIST REPORT:

Name:                   00302.MPLS
Size:                   327 911 424 bytes
Length:                 0:04:47 (h:m:s)
Total Bitrate:          9,13 Mbps
Description:

VIDEO:

Codec                   Bitrate             Description
-----                   -------             -----------
MPEG-4 AVC Video        7608 kbps           480i / 29,970 fps / 16:9 / Main Profile 3.2

AUDIO:

Codec                           Language        Bitrate         Description
-----                           --------        -------         -----------
DTS Audio                       English         256 kbps        2.0 / 48 kHz / 256 kbps / 16-bit

SUBTITLES:

Codec                           Language        Bitrate         Description
-----                           --------        -------         -----------
Presentation Graphics           English         32,226 kbps
Presentation Graphics           French          27,071 kbps
Presentation Graphics           Portuguese      25,602 kbps

FILES:

Name            Time In         Length          Size            Total Bitrate
----            -------         ------          ----            -------------
50136.M2TS      0:00:00.000     0:02:55.842     193 523 712     8 804
50137.M2TS      0:02:55.842     0:01:51.611     134 387 712     9 633

CHAPTERS:

Number          Time In         Length          Avg Video Rate  Max 1-Sec Rate  Max 1-Sec Time  Max 5-Sec Rate  Max 5-Sec Time  Max 10Sec Rate  Max 10Sec Time  Avg Frame Size  Max Frame Size  Max Frame Time
------          -------         ------          --------------  --------------  --------------  --------------  --------------  --------------  --------------  --------------  --------------  --------------
1               0:00:00.000     0:02:55.842     7 997 kbps      17 407 kbps     00:00:57.023    14 270 kbps     00:00:57.023    12 942 kbps     00:00:57.023    33 347 bytes    132 948 bytes   00:02:12.031
2               0:02:55.842     0:01:51.611     6 995 kbps      13 647 kbps     00:03:16.996    12 568 kbps     00:03:16.996    11 040 kbps     00:03:16.162    29 184 bytes    89 140 bytes    00:04:21.894

STREAM DIAGNOSTICS:

File            PID             Type            Codec           Language                Seconds                 Bitrate                 Bytes           Packets
----            ---             ----            -----           --------                --------------          --------------          -------------   -----
50136.M2TS      4113 (0x1011)   0x1B            AVC                                     175,742                 8 001                   175 772 072     958 349
50136.M2TS      4352 (0x1100)   0x82            DTS             eng (English)           175,742                 255                     5 605 240       32 972
50136.M2TS      4608 (0x1200)   0x90            PGS             eng (English)           175,742                 31                      672 070         4 011
50136.M2TS      4609 (0x1201)   0x90            PGS             fra (French)            175,742                 26                      566 080         3 423
50136.M2TS      4610 (0x1202)   0x90            PGS             por (Portuguese)        175,742                 25                      540 750         3 283
50137.M2TS      4113 (0x1011)   0x1B            AVC                                     111,545                 6 999                   97 592 828      532 354
50137.M2TS      4352 (0x1100)   0x86            DTS-HD MA       eng (English)           111,545                 1 811                   25 244 992      156 166
50137.M2TS      4608 (0x1200)   0x90            PGS             eng (English)           111,545                 35                      485 848         2 902
50137.M2TS      4609 (0x1201)   0x90            PGS             fra (French)            111,545                 29                      406 623         2 441
50137.M2TS      4610 (0x1202)   0x90            PGS             por (Portuguese)        111,545                 27                      379 174         2 300


QUICK SUMMARY:

Disc Title: WHAT_DREAMS_MAY_COME_BD_HDCLUB_BY_VOLSHEBNIK
Disc Size: 37 130 096 069 bytes
Protection: AACS
BD-Java: Yes
Playlist: 00302.MPLS
Size: 327 911 424 bytes
Length: 0:04:47
Total Bitrate: 9,13 Mbps
Video: MPEG-4 AVC Video / 7608 kbps / 480i / 29,970 fps / 16:9 / Main Profile 3.2
Audio: English / DTS Audio / 2.0 / 48 kHz / 256 kbps / 16-bit
Subtitle: English / 32,226 kbps
Subtitle: French / 27,071 kbps
Subtitle: Portuguese / 25,602 kbps

********************
PLAYLIST: 00303.MPLS
********************

Код:

Total   Video
Title                                                           Codec   Length  Movie Size      Disc Size       Bitrate Bitrate Main Audio Track                          Secondary Audio Track
-----                                                           ------  ------- --------------  --------------  ------- ------- ------------------                        ---------------------
00303.MPLS                                                      AVC     0:02:55 193 523 712     37 130 096 069  8,80    8,00    DTS 2.0 256Kbps (48kHz/16-bit)


Код:

DISC INFO:

Disc Title:     WHAT_DREAMS_MAY_COME_BD_HDCLUB_BY_VOLSHEBNIK
Disc Size:      37 130 096 069 bytes
Protection:     AACS
BD-Java:        Yes
BDInfo:         0.5.2

PLAYLIST REPORT:

Name:                   00303.MPLS
Size:                   193 523 712 bytes
Length:                 0:02:55 (h:m:s)
Total Bitrate:          8,80 Mbps
Description:

VIDEO:

Codec                   Bitrate             Description
-----                   -------             -----------
MPEG-4 AVC Video        7997 kbps           480i / 29,970 fps / 16:9 / Main Profile 3.2

AUDIO:

Codec                           Language        Bitrate         Description
-----                           --------        -------         -----------
DTS Audio                       English         256 kbps        2.0 / 48 kHz / 256 kbps / 16-bit

SUBTITLES:

Codec                           Language        Bitrate         Description
-----                           --------        -------         -----------
Presentation Graphics           English         30,576 kbps
Presentation Graphics           French          25,754 kbps
Presentation Graphics           Portuguese      24,602 kbps

FILES:

Name            Time In         Length          Size            Total Bitrate
----            -------         ------          ----            -------------
50136.M2TS      0:00:00.000     0:02:55.842     193 523 712     8 804

CHAPTERS:

Number          Time In         Length          Avg Video Rate  Max 1-Sec Rate  Max 1-Sec Time  Max 5-Sec Rate  Max 5-Sec Time  Max 10Sec Rate  Max 10Sec Time  Avg Frame Size  Max Frame Size  Max Frame Time
------          -------         ------          --------------  --------------  --------------  --------------  --------------  --------------  --------------  --------------  --------------  --------------
1               0:00:00.000     0:02:55.842     7 997 kbps      17 407 kbps     00:00:57.023    14 270 kbps     00:00:57.023    12 942 kbps     00:00:57.023    33 353 bytes    132 948 bytes   00:02:12.031

STREAM DIAGNOSTICS:

File            PID             Type            Codec           Language                Seconds                 Bitrate                 Bytes           Packets
----            ---             ----            -----           --------                --------------          --------------          -------------   -----
50136.M2TS      4113 (0x1011)   0x1B            AVC                                     175,742                 8 001                   175 772 072     958 349
50136.M2TS      4352 (0x1100)   0x82            DTS             eng (English)           175,742                 255                     5 605 240       32 972
50136.M2TS      4608 (0x1200)   0x90            PGS             eng (English)           175,742                 31                      672 070         4 011
50136.M2TS      4609 (0x1201)   0x90            PGS             fra (French)            175,742                 26                      566 080         3 423
50136.M2TS      4610 (0x1202)   0x90            PGS             por (Portuguese)        175,742                 25                      540 750         3 283


QUICK SUMMARY:

Disc Title: WHAT_DREAMS_MAY_COME_BD_HDCLUB_BY_VOLSHEBNIK
Disc Size: 37 130 096 069 bytes
Protection: AACS
BD-Java: Yes
Playlist: 00303.MPLS
Size: 193 523 712 bytes
Length: 0:02:55
Total Bitrate: 8,80 Mbps
Video: MPEG-4 AVC Video / 7997 kbps / 480i / 29,970 fps / 16:9 / Main Profile 3.2
Audio: English / DTS Audio / 2.0 / 48 kHz / 256 kbps / 16-bit
Subtitle: English / 30,576 kbps
Subtitle: French / 25,754 kbps
Subtitle: Portuguese / 24,602 kbps

********************
PLAYLIST: 00305.MPLS
********************

Код:

Total   Video
Title                                                           Codec   Length  Movie Size      Disc Size       Bitrate Bitrate Main Audio Track                          Secondary Audio Track
-----                                                           ------  ------- --------------  --------------  ------- ------- ------------------                        ---------------------
00305.MPLS                                                      AVC     0:02:26 141 201 408     37 130 096 069  7,72    7,00    DTS 2.0 256Kbps (48kHz/16-bit)


Код:

DISC INFO:

Disc Title:     WHAT_DREAMS_MAY_COME_BD_HDCLUB_BY_VOLSHEBNIK
Disc Size:      37 130 096 069 bytes
Protection:     AACS
BD-Java:        Yes
BDInfo:         0.5.2

PLAYLIST REPORT:

Name:                   00305.MPLS
Size:                   141 201 408 bytes
Length:                 0:02:26 (h:m:s)
Total Bitrate:          7,72 Mbps
Description:

VIDEO:

Codec                   Bitrate             Description
-----                   -------             -----------
MPEG-4 AVC Video        6995 kbps           480i / 29,970 fps / 16:9 / Main Profile 3.2

AUDIO:

Codec                           Language        Bitrate         Description
-----                           --------        -------         -----------
DTS Audio                       English         256 kbps        2.0 / 48 kHz / 256 kbps / 16-bit

SUBTITLES:

Codec                           Language        Bitrate         Description
-----                           --------        -------         -----------
Presentation Graphics           English         17,026 kbps
Presentation Graphics           French          12,992 kbps
Presentation Graphics           Portuguese      13,188 kbps

FILES:

Name            Time In         Length          Size            Total Bitrate
----            -------         ------          ----            -------------
50138.M2TS      0:00:00.000     0:02:26.312     141 201 408     7 721

CHAPTERS:

Number          Time In         Length          Avg Video Rate  Max 1-Sec Rate  Max 1-Sec Time  Max 5-Sec Rate  Max 5-Sec Time  Max 10Sec Rate  Max 10Sec Time  Avg Frame Size  Max Frame Size  Max Frame Time
------          -------         ------          --------------  --------------  --------------  --------------  --------------  --------------  --------------  --------------  --------------  --------------
1               0:00:00.000     0:02:26.312     6 995 kbps      12 377 kbps     00:01:02.362    10 460 kbps     00:00:59.325    9 663 kbps      00:00:56.089    29 177 bytes    80 734 bytes    00:00:59.459

STREAM DIAGNOSTICS:

File            PID             Type            Codec           Language                Seconds                 Bitrate                 Bytes           Packets
----            ---             ----            -----           --------                --------------          --------------          -------------   -----
50138.M2TS      4113 (0x1011)   0x1B            AVC                                     146,179                 7 002                   127 939 945     697 871
50138.M2TS      4352 (0x1100)   0x82            DTS             eng (English)           146,179                 255                     4 663 780       27 434
50138.M2TS      4608 (0x1200)   0x90            PGS             eng (English)           146,179                 17                      311 393         2 024
50138.M2TS      4609 (0x1201)   0x90            PGS             fra (French)            146,179                 13                      237 609         1 582
50138.M2TS      4610 (0x1202)   0x90            PGS             por (Portuguese)        146,179                 13                      241 189         1 604


QUICK SUMMARY:

Disc Title: WHAT_DREAMS_MAY_COME_BD_HDCLUB_BY_VOLSHEBNIK
Disc Size: 37 130 096 069 bytes
Protection: AACS
BD-Java: Yes
Playlist: 00305.MPLS
Size: 141 201 408 bytes
Length: 0:02:26
Total Bitrate: 7,72 Mbps
Video: MPEG-4 AVC Video / 6995 kbps / 480i / 29,970 fps / 16:9 / Main Profile 3.2
Audio: English / DTS Audio / 2.0 / 48 kHz / 256 kbps / 16-bit
Subtitle: English / 17,026 kbps
Subtitle: French / 12,992 kbps
Subtitle: Portuguese / 13,188 kbps

********************
PLAYLIST: 00306.MPLS
********************

Код:

Total   Video
Title                                                           Codec   Length  Movie Size      Disc Size       Bitrate Bitrate Main Audio Track                          Secondary Audio Track
-----                                                           ------  ------- --------------  --------------  ------- ------- ------------------                        ---------------------
00306.MPLS                                                      AVC     0:02:25 140 212 224     37 130 096 069  7,73    7,00    DTS 2.0 256Kbps (48kHz/16-bit)


Код:

DISC INFO:

Disc Title:     WHAT_DREAMS_MAY_COME_BD_HDCLUB_BY_VOLSHEBNIK
Disc Size:      37 130 096 069 bytes
Protection:     AACS
BD-Java:        Yes
BDInfo:         0.5.2

PLAYLIST REPORT:

Name:                   00306.MPLS
Size:                   140 212 224 bytes
Length:                 0:02:25 (h:m:s)
Total Bitrate:          7,73 Mbps
Description:

VIDEO:

Codec                   Bitrate             Description
-----                   -------             -----------
MPEG-4 AVC Video        6997 kbps           480i / 29,970 fps / 16:9 / Main Profile 3.2

AUDIO:

Codec                           Language        Bitrate         Description
-----                           --------        -------         -----------
DTS Audio                       English         256 kbps        2.0 / 48 kHz / 256 kbps / 16-bit

SUBTITLES:

Codec                           Language        Bitrate         Description
-----                           --------        -------         -----------
Presentation Graphics           English         18,370 kbps
Presentation Graphics           French          14,101 kbps
Presentation Graphics           Portuguese      15,254 kbps

FILES:

Name            Time In         Length          Size            Total Bitrate
----            -------         ------          ----            -------------
50139.M2TS      0:00:00.000     0:02:25.144     140 212 224     7 728

CHAPTERS:

Number          Time In         Length          Avg Video Rate  Max 1-Sec Rate  Max 1-Sec Time  Max 5-Sec Rate  Max 5-Sec Time  Max 10Sec Rate  Max 10Sec Time  Avg Frame Size  Max Frame Size  Max Frame Time
------          -------         ------          --------------  --------------  --------------  --------------  --------------  --------------  --------------  --------------  --------------  --------------
1               0:00:00.000     0:02:25.144     6 997 kbps      13 272 kbps     00:01:02.796    10 399 kbps     00:00:40.206    10 168 kbps     00:00:39.506    29 183 bytes    92 311 bytes    00:01:02.829

STREAM DIAGNOSTICS:

File            PID             Type            Codec           Language                Seconds                 Bitrate                 Bytes           Packets
----            ---             ----            -----           --------                --------------          --------------          -------------   -----
50139.M2TS      4113 (0x1011)   0x1B            AVC                                     145,012                 7 003                   126 947 516     692 504
50139.M2TS      4352 (0x1100)   0x82            DTS             eng (English)           145,012                 255                     4 626 720       27 216
50139.M2TS      4608 (0x1200)   0x90            PGS             eng (English)           145,012                 18                      333 287         2 153
50139.M2TS      4609 (0x1201)   0x90            PGS             fra (French)            145,012                 14                      255 831         1 709
50139.M2TS      4610 (0x1202)   0x90            PGS             por (Portuguese)        145,012                 15                      276 761         1 824


QUICK SUMMARY:

Disc Title: WHAT_DREAMS_MAY_COME_BD_HDCLUB_BY_VOLSHEBNIK
Disc Size: 37 130 096 069 bytes
Protection: AACS
BD-Java: Yes
Playlist: 00306.MPLS
Size: 140 212 224 bytes
Length: 0:02:25
Total Bitrate: 7,73 Mbps
Video: MPEG-4 AVC Video / 6997 kbps / 480i / 29,970 fps / 16:9 / Main Profile 3.2
Audio: English / DTS Audio / 2.0 / 48 kHz / 256 kbps / 16-bit
Subtitle: English / 18,370 kbps
Subtitle: French / 14,101 kbps
Subtitle: Portuguese / 15,254 kbps

********************
PLAYLIST: 00304.MPLS
********************

Код:

Total   Video
Title                                                           Codec   Length  Movie Size      Disc Size       Bitrate Bitrate Main Audio Track                          Secondary Audio Track
-----                                                           ------  ------- --------------  --------------  ------- ------- ------------------                        ---------------------
00304.MPLS                                                      AVC     0:01:51 134 387 712     37 130 096 069  9,63    7,00    DTS-HD Master 2.0 1809Kbps (48kHz/24-bit)


Код:

DISC INFO:

Disc Title:     WHAT_DREAMS_MAY_COME_BD_HDCLUB_BY_VOLSHEBNIK
Disc Size:      37 130 096 069 bytes
Protection:     AACS
BD-Java:        Yes
BDInfo:         0.5.2

PLAYLIST REPORT:

Name:                   00304.MPLS
Size:                   134 387 712 bytes
Length:                 0:01:51 (h:m:s)
Total Bitrate:          9,63 Mbps
Description:

VIDEO:

Codec                   Bitrate             Description
-----                   -------             -----------
MPEG-4 AVC Video        6995 kbps           480i / 29,970 fps / 16:9 / Main Profile 3.2

AUDIO:

Codec                           Language        Bitrate         Description
-----                           --------        -------         -----------
DTS-HD Master Audio             English         1809 kbps       2.0 / 48 kHz / 1809 kbps / 24-bit (DTS Core: 2.0 / 48 kHz / 1509 kbps / 24-bit)

SUBTITLES:

Codec                           Language        Bitrate         Description
-----                           --------        -------         -----------
Presentation Graphics           English         34,824 kbps
Presentation Graphics           French          29,146 kbps
Presentation Graphics           Portuguese      27,178 kbps

FILES:

Name            Time In         Length          Size            Total Bitrate
----            -------         ------          ----            -------------
50137.M2TS      0:00:00.000     0:01:51.611     134 387 712     9 633

CHAPTERS:

Number          Time In         Length          Avg Video Rate  Max 1-Sec Rate  Max 1-Sec Time  Max 5-Sec Rate  Max 5-Sec Time  Max 10Sec Rate  Max 10Sec Time  Avg Frame Size  Max Frame Size  Max Frame Time
------          -------         ------          --------------  --------------  --------------  --------------  --------------  --------------  --------------  --------------  --------------  --------------
1               0:00:00.000     0:01:51.611     6 995 kbps      13 647 kbps     00:00:21.154    12 568 kbps     00:00:21.154    11 040 kbps     00:00:20.320    29 176 bytes    89 140 bytes    00:01:26.052

STREAM DIAGNOSTICS:

File            PID             Type            Codec           Language                Seconds                 Bitrate                 Bytes           Packets
----            ---             ----            -----           --------                --------------          --------------          -------------   -----
50137.M2TS      4113 (0x1011)   0x1B            AVC                                     111,545                 6 999                   97 592 828      532 354
50137.M2TS      4352 (0x1100)   0x86            DTS-HD MA       eng (English)           111,545                 1 811                   25 244 992      156 166
50137.M2TS      4608 (0x1200)   0x90            PGS             eng (English)           111,545                 35                      485 848         2 902
50137.M2TS      4609 (0x1201)   0x90            PGS             fra (French)            111,545                 29                      406 623         2 441
50137.M2TS      4610 (0x1202)   0x90            PGS             por (Portuguese)        111,545                 27                      379 174         2 300


QUICK SUMMARY:

Disc Title: WHAT_DREAMS_MAY_COME_BD_HDCLUB_BY_VOLSHEBNIK
Disc Size: 37 130 096 069 bytes
Protection: AACS
BD-Java: Yes
Playlist: 00304.MPLS
Size: 134 387 712 bytes
Length: 0:01:51
Total Bitrate: 9,63 Mbps
Video: MPEG-4 AVC Video / 6995 kbps / 480i / 29,970 fps / 16:9 / Main Profile 3.2
Audio: English / DTS-HD Master Audio / 2.0 / 48 kHz / 1809 kbps / 24-bit (DTS Core: 2.0 / 48 kHz / 1509 kbps / 24-bit)
Subtitle: English / 34,824 kbps
Subtitle: French / 29,146 kbps
Subtitle: Portuguese / 27,178 kbps

********************
PLAYLIST: 00272.MPLS
********************

Код:

Total   Video
Title                                                           Codec   Length  Movie Size      Disc Size       Bitrate Bitrate Main Audio Track                          Secondary Audio Track
-----                                                           ------  ------- --------------  --------------  ------- ------- ------------------                        ---------------------
00272.MPLS                                                      VC-1    0:01:33 153 434 112     37 130 096 069  13,10   11,63   DD AC3 5.1 640Kbps


Код:

DISC INFO:

Disc Title:     WHAT_DREAMS_MAY_COME_BD_HDCLUB_BY_VOLSHEBNIK
Disc Size:      37 130 096 069 bytes
Protection:     AACS
BD-Java:        Yes
BDInfo:         0.5.2

PLAYLIST REPORT:

Name:                   00272.MPLS
Size:                   153 434 112 bytes
Length:                 0:01:33 (h:m:s)
Total Bitrate:          13,10 Mbps
Description:

VIDEO:

Codec                   Bitrate             Description
-----                   -------             -----------
VC-1 Video              11629 kbps          1080p / 23,976 fps / 16:9 / Advanced Profile 3

AUDIO:

Codec                           Language        Bitrate         Description
-----                           --------        -------         -----------
Dolby Digital Audio             English         640 kbps        5.1 / 48 kHz / 640 kbps

SUBTITLES:

Codec                           Language        Bitrate         Description
-----                           --------        -------         -----------
Presentation Graphics           English         73,123 kbps
Presentation Graphics           French          82,573 kbps

FILES:

Name            Time In         Length          Size            Total Bitrate
----            -------         ------          ----            -------------
50128.M2TS      0:00:00.000     0:01:33.718     153 434 112     13 097

CHAPTERS:

Number          Time In         Length          Avg Video Rate  Max 1-Sec Rate  Max 1-Sec Time  Max 5-Sec Rate  Max 5-Sec Time  Max 10Sec Rate  Max 10Sec Time  Avg Frame Size  Max Frame Size  Max Frame Time
------          -------         ------          --------------  --------------  --------------  --------------  --------------  --------------  --------------  --------------  --------------  --------------
1               0:00:00.000     0:01:33.718     11 629 kbps     42 603 kbps     00:00:00.000    25 388 kbps     00:00:36.911    23 364 kbps     00:00:32.741    60 790 bytes    478 055 bytes   00:00:40.081

STREAM DIAGNOSTICS:

File            PID             Type            Codec           Language                Seconds                 Bitrate                 Bytes           Packets
----            ---             ----            -----           --------                --------------          --------------          -------------   -----
50128.M2TS      4113 (0x1011)   0xEA            VC-1                                    93,594                  11 644                  136 229 856     741 767
50128.M2TS      4352 (0x1100)   0x81            AC3             eng (English)           93,594                  641                     7 498 240       43 935
50128.M2TS      4608 (0x1200)   0x90            PGS             eng (English)           93,594                  73                      856 625         4 820
50128.M2TS      4609 (0x1201)   0x90            PGS             fra (French)            93,594                  83                      967 332         5 428


QUICK SUMMARY:

Disc Title: WHAT_DREAMS_MAY_COME_BD_HDCLUB_BY_VOLSHEBNIK
Disc Size: 37 130 096 069 bytes
Protection: AACS
BD-Java: Yes
Playlist: 00272.MPLS
Size: 153 434 112 bytes
Length: 0:01:33
Total Bitrate: 13,10 Mbps
Video: VC-1 Video / 11629 kbps / 1080p / 23,976 fps / 16:9 / Advanced Profile 3
Audio: English / Dolby Digital Audio / 5.1 / 48 kHz / 640 kbps
Subtitle: English / 73,123 kbps
Subtitle: French / 82,573 kbps

********************
PLAYLIST: 00267.MPLS
********************

Код:

Total   Video
Title                                                           Codec   Length  Movie Size      Disc Size       Bitrate Bitrate Main Audio Track                          Secondary Audio Track
-----                                                           ------  ------- --------------  --------------  ------- ------- ------------------                        ---------------------
00267.MPLS                                                      VC-1    0:01:12 106 469 376     37 130 096 069  11,68   10,26   DD AC3 5.1 640Kbps


Код:

DISC INFO:

Disc Title:     WHAT_DREAMS_MAY_COME_BD_HDCLUB_BY_VOLSHEBNIK
Disc Size:      37 130 096 069 bytes
Protection:     AACS
BD-Java:        Yes
BDInfo:         0.5.2

PLAYLIST REPORT:

Name:                   00267.MPLS
Size:                   106 469 376 bytes
Length:                 0:01:12 (h:m:s)
Total Bitrate:          11,68 Mbps
Description:

VIDEO:

Codec                   Bitrate             Description
-----                   -------             -----------
VC-1 Video              10263 kbps          1080p / 23,976 fps / 16:9 / Advanced Profile 3

AUDIO:

Codec                           Language        Bitrate         Description
-----                           --------        -------         -----------
Dolby Digital Audio             English         640 kbps        5.1 / 48 kHz / 640 kbps

SUBTITLES:

Codec                           Language        Bitrate         Description
-----                           --------        -------         -----------
Presentation Graphics           English         79,981 kbps
Presentation Graphics           French          85,622 kbps

FILES:

Name            Time In         Length          Size            Total Bitrate
----            -------         ------          ----            -------------
00078.M2TS      0:00:00.000     0:01:12.906     106 469 376     11 683

CHAPTERS:

Number          Time In         Length          Avg Video Rate  Max 1-Sec Rate  Max 1-Sec Time  Max 5-Sec Rate  Max 5-Sec Time  Max 10Sec Rate  Max 10Sec Time  Avg Frame Size  Max Frame Size  Max Frame Time
------          -------         ------          --------------  --------------  --------------  --------------  --------------  --------------  --------------  --------------  --------------  --------------
1               0:00:00.000     0:01:12.906     10 263 kbps     41 047 kbps     00:00:00.000    17 134 kbps     00:00:19.269    14 255 kbps     00:00:17.100    53 567 bytes    457 146 bytes   00:00:25.024

STREAM DIAGNOSTICS:

File            PID             Type            Codec           Language                Seconds                 Bitrate                 Bytes           Packets
----            ---             ----            -----           --------                --------------          --------------          -------------   -----
00078.M2TS      4113 (0x1011)   0xEA            VC-1                                    72,781                  10 281                  93 528 634      509 374
00078.M2TS      4352 (0x1100)   0x81            AC3             eng (English)           72,781                  641                     5 834 240       34 185
00078.M2TS      4608 (0x1200)   0x90            PGS             eng (English)           72,781                  80                      728 893         4 108
00078.M2TS      4609 (0x1201)   0x90            PGS             fra (French)            72,781                  86                      780 301         4 385


QUICK SUMMARY:

Disc Title: WHAT_DREAMS_MAY_COME_BD_HDCLUB_BY_VOLSHEBNIK
Disc Size: 37 130 096 069 bytes
Protection: AACS
BD-Java: Yes
Playlist: 00267.MPLS
Size: 106 469 376 bytes
Length: 0:01:12
Total Bitrate: 11,68 Mbps
Video: VC-1 Video / 10263 kbps / 1080p / 23,976 fps / 16:9 / Advanced Profile 3
Audio: English / Dolby Digital Audio / 5.1 / 48 kHz / 640 kbps
Subtitle: English / 79,981 kbps
Subtitle: French / 85,622 kbps

********************
PLAYLIST: 00021.MPLS
********************

Код:

Total   Video
Title                                                           Codec   Length  Movie Size      Disc Size       Bitrate Bitrate Main Audio Track                          Secondary Audio Track
-----                                                           ------  ------- --------------  --------------  ------- ------- ------------------                        ---------------------
00021.MPLS                                                      VC-1    0:01:05 142 940 160     37 130 096 069  17,46   15,97   DD AC3 5.1 640Kbps


Код:

DISC INFO:

Disc Title:     WHAT_DREAMS_MAY_COME_BD_HDCLUB_BY_VOLSHEBNIK
Disc Size:      37 130 096 069 bytes
Protection:     AACS
BD-Java:        Yes
BDInfo:         0.5.2

PLAYLIST REPORT:

Name:                   00021.MPLS
Size:                   142 940 160 bytes
Length:                 0:01:05 (h:m:s)
Total Bitrate:          17,46 Mbps
Description:

VIDEO:

Codec                   Bitrate             Description
-----                   -------             -----------
VC-1 Video              15973 kbps          1080p / 23,976 fps / 16:9 / Advanced Profile 3

AUDIO:

Codec                           Language        Bitrate         Description
-----                           --------        -------         -----------
Dolby Digital Audio             English         640 kbps        5.1 / 48 kHz / 640 kbps

FILES:

Name            Time In         Length          Size            Total Bitrate
----            -------         ------          ----            -------------
00012.M2TS      0:00:00.000     0:01:05.482     142 940 160     17 463

CHAPTERS:

Number          Time In         Length          Avg Video Rate  Max 1-Sec Rate  Max 1-Sec Time  Max 5-Sec Rate  Max 5-Sec Time  Max 10Sec Rate  Max 10Sec Time  Avg Frame Size  Max Frame Size  Max Frame Time
------          -------         ------          --------------  --------------  --------------  --------------  --------------  --------------  --------------  --------------  --------------  --------------
1               0:00:00.000     0:01:05.482     15 973 kbps     23 961 kbps     00:00:05.755    20 450 kbps     00:00:25.525    19 034 kbps     00:00:20.520    83 276 bytes    254 367 bytes   00:00:03.003

STREAM DIAGNOSTICS:

File            PID             Type            Codec           Language                Seconds                 Bitrate                 Bytes           Packets
----            ---             ----            -----           --------                --------------          --------------          -------------   -----
00012.M2TS      4113 (0x1011)   0xEA            VC-1                                    65,357                  16 004                  130 744 046     711 530
00012.M2TS      4352 (0x1100)   0x81            AC3             eng (English)           65,357                  641                     5 240 320       30 705


QUICK SUMMARY:

Disc Title: WHAT_DREAMS_MAY_COME_BD_HDCLUB_BY_VOLSHEBNIK
Disc Size: 37 130 096 069 bytes
Protection: AACS
BD-Java: Yes
Playlist: 00021.MPLS
Size: 142 940 160 bytes
Length: 0:01:05
Total Bitrate: 17,46 Mbps
Video: VC-1 Video / 15973 kbps / 1080p / 23,976 fps / 16:9 / Advanced Profile 3
Audio: English / Dolby Digital Audio / 5.1 / 48 kHz / 640 kbps

********************
PLAYLIST: 00022.MPLS
********************

Код:

Total   Video
Title                                                           Codec   Length  Movie Size      Disc Size       Bitrate Bitrate Main Audio Track                          Secondary Audio Track
-----                                                           ------  ------- --------------  --------------  ------- ------- ------------------                        ---------------------
00022.MPLS                                                      VC-1    0:00:59 130 842 624     37 130 096 069  17,45   15,96   DD AC3 5.1 640Kbps


Код:

DISC INFO:

Disc Title:     WHAT_DREAMS_MAY_COME_BD_HDCLUB_BY_VOLSHEBNIK
Disc Size:      37 130 096 069 bytes
Protection:     AACS
BD-Java:        Yes
BDInfo:         0.5.2

PLAYLIST REPORT:

Name:                   00022.MPLS
Size:                   130 842 624 bytes
Length:                 0:00:59 (h:m:s)
Total Bitrate:          17,45 Mbps
Description:

VIDEO:

Codec                   Bitrate             Description
-----                   -------             -----------
VC-1 Video              15964 kbps          1080p / 23,976 fps / 16:9 / Advanced Profile 3

AUDIO:

Codec                           Language        Bitrate         Description
-----                           --------        -------         -----------
Dolby Digital Audio             English         640 kbps        5.1 / 48 kHz / 640 kbps

FILES:

Name            Time In         Length          Size            Total Bitrate
----            -------         ------          ----            -------------
00013.M2TS      0:00:00.000     0:00:59.976     130 842 624     17 452

CHAPTERS:

Number          Time In         Length          Avg Video Rate  Max 1-Sec Rate  Max 1-Sec Time  Max 5-Sec Rate  Max 5-Sec Time  Max 10Sec Rate  Max 10Sec Time  Avg Frame Size  Max Frame Size  Max Frame Time
------          -------         ------          --------------  --------------  --------------  --------------  --------------  --------------  --------------  --------------  --------------  --------------
1               0:00:00.000     0:00:59.976     15 964 kbps     22 053 kbps     00:00:21.938    19 946 kbps     00:00:20.019    18 672 kbps     00:00:15.682    83 227 bytes    227 684 bytes   00:00:20.145

STREAM DIAGNOSTICS:

File            PID             Type            Codec           Language                Seconds                 Bitrate                 Bytes           Packets
----            ---             ----            -----           --------                --------------          --------------          -------------   -----
00013.M2TS      4113 (0x1011)   0xEA            VC-1                                    59,851                  15 997                  119 680 330     651 321
00013.M2TS      4352 (0x1100)   0x81            AC3             eng (English)           59,851                  642                     4 800 000       28 125


QUICK SUMMARY:

Disc Title: WHAT_DREAMS_MAY_COME_BD_HDCLUB_BY_VOLSHEBNIK
Disc Size: 37 130 096 069 bytes
Protection: AACS
BD-Java: Yes
Playlist: 00022.MPLS
Size: 130 842 624 bytes
Length: 0:00:59
Total Bitrate: 17,45 Mbps
Video: VC-1 Video / 15964 kbps / 1080p / 23,976 fps / 16:9 / Advanced Profile 3
Audio: English / Dolby Digital Audio / 5.1 / 48 kHz / 640 kbps

********************
PLAYLIST: 00011.MPLS
********************

Код:

Total   Video
Title                                                           Codec   Length  Movie Size      Disc Size       Bitrate Bitrate Main Audio Track                          Secondary Audio Track
-----                                                           ------  ------- --------------  --------------  ------- ------- ------------------                        ---------------------
00011.MPLS                                                      VC-1    0:00:23 64 106 496      37 130 096 069  21,69   20,02   DD AC3 5.1 640Kbps


Код:

DISC INFO:

Disc Title:     WHAT_DREAMS_MAY_COME_BD_HDCLUB_BY_VOLSHEBNIK
Disc Size:      37 130 096 069 bytes
Protection:     AACS
BD-Java:        Yes
BDInfo:         0.5.2

PLAYLIST REPORT:

Name:                   00011.MPLS
Size:                   64 106 496 bytes
Length:                 0:00:23 (h:m:s)
Total Bitrate:          21,69 Mbps
Description:

VIDEO:

Codec                   Bitrate             Description
-----                   -------             -----------
VC-1 Video              20019 kbps          1080p / 23,976 fps / 16:9 / Advanced Profile 3

AUDIO:

Codec                           Language        Bitrate         Description
-----                           --------        -------         -----------
Dolby Digital Audio             English         640 kbps        5.1 / 48 kHz / 640 kbps

FILES:

Name            Time In         Length          Size            Total Bitrate
----            -------         ------          ----            -------------
00000.M2TS      0:00:00.000     0:00:23.648     64 106 496      21 686

CHAPTERS:

Number          Time In         Length          Avg Video Rate  Max 1-Sec Rate  Max 1-Sec Time  Max 5-Sec Rate  Max 5-Sec Time  Max 10Sec Rate  Max 10Sec Time  Avg Frame Size  Max Frame Size  Max Frame Time
------          -------         ------          --------------  --------------  --------------  --------------  --------------  --------------  --------------  --------------  --------------  --------------
1               0:00:00.000     0:00:23.648     20 019 kbps     43 839 kbps     00:00:07.966    36 473 kbps     00:00:07.048    32 577 kbps     00:00:04.713    108 781 bytes   471 987 bytes   00:00:08.591

STREAM DIAGNOSTICS:

File            PID             Type            Codec           Language                Seconds                 Bitrate                 Bytes           Packets
----            ---             ----            -----           --------                --------------          --------------          -------------   -----
00000.M2TS      4113 (0x1011)   0xEA            VC-1                                    23,565                  20 090                  59 176 948      321 957
00000.M2TS      4352 (0x1100)   0x81            AC3             eng (English)           23,565                  643                     1 894 400       11 100


QUICK SUMMARY:

Disc Title: WHAT_DREAMS_MAY_COME_BD_HDCLUB_BY_VOLSHEBNIK
Disc Size: 37 130 096 069 bytes
Protection: AACS
BD-Java: Yes
Playlist: 00011.MPLS
Size: 64 106 496 bytes
Length: 0:00:23
Total Bitrate: 21,69 Mbps
Video: VC-1 Video / 20019 kbps / 1080p / 23,976 fps / 16:9 / Advanced Profile 3
Audio: English / Dolby Digital Audio / 5.1 / 48 kHz / 640 kbps

********************
PLAYLIST: 01102.MPLS
********************

Код:

Total   Video
Title                                                           Codec   Length  Movie Size      Disc Size       Bitrate Bitrate Main Audio Track                          Secondary Audio Track
-----                                                           ------  ------- --------------  --------------  ------- ------- ------------------                        ---------------------
01102.MPLS                                                      VC-1    0:00:23 64 106 496      37 130 096 069  21,69   20,02   DD AC3 5.1 640Kbps


Код:

DISC INFO:

Disc Title:     WHAT_DREAMS_MAY_COME_BD_HDCLUB_BY_VOLSHEBNIK
Disc Size:      37 130 096 069 bytes
Protection:     AACS
BD-Java:        Yes
BDInfo:         0.5.2

PLAYLIST REPORT:

Name:                   01102.MPLS
Size:                   64 106 496 bytes
Length:                 0:00:23 (h:m:s)
Total Bitrate:          21,69 Mbps
Description:

VIDEO:

Codec                   Bitrate             Description
-----                   -------             -----------
VC-1 Video              20019 kbps          1080p / 23,976 fps / 16:9 / Advanced Profile 3

AUDIO:

Codec                           Language        Bitrate         Description
-----                           --------        -------         -----------
Dolby Digital Audio             English         640 kbps        5.1 / 48 kHz / 640 kbps

FILES:

Name            Time In         Length          Size            Total Bitrate
----            -------         ------          ----            -------------
50057.M2TS      0:00:00.000     0:00:23.648     64 106 496      21 686

CHAPTERS:

Number          Time In         Length          Avg Video Rate  Max 1-Sec Rate  Max 1-Sec Time  Max 5-Sec Rate  Max 5-Sec Time  Max 10Sec Rate  Max 10Sec Time  Avg Frame Size  Max Frame Size  Max Frame Time
------          -------         ------          --------------  --------------  --------------  --------------  --------------  --------------  --------------  --------------  --------------  --------------
1               0:00:00.000     0:00:23.648     20 019 kbps     43 839 kbps     00:00:07.966    36 473 kbps     00:00:07.048    32 577 kbps     00:00:04.713    108 781 bytes   471 987 bytes   00:00:08.591

STREAM DIAGNOSTICS:

File            PID             Type            Codec           Language                Seconds                 Bitrate                 Bytes           Packets
----            ---             ----            -----           --------                --------------          --------------          -------------   -----
50057.M2TS      4113 (0x1011)   0xEA            VC-1                                    23,565                  20 090                  59 176 948      321 957
50057.M2TS      4352 (0x1100)   0x81            AC3             eng (English)           23,565                  643                     1 894 400       11 100


QUICK SUMMARY:

Disc Title: WHAT_DREAMS_MAY_COME_BD_HDCLUB_BY_VOLSHEBNIK
Disc Size: 37 130 096 069 bytes
Protection: AACS
BD-Java: Yes
Playlist: 01102.MPLS
Size: 64 106 496 bytes
Length: 0:00:23
Total Bitrate: 21,69 Mbps
Video: VC-1 Video / 20019 kbps / 1080p / 23,976 fps / 16:9 / Advanced Profile 3
Audio: English / Dolby Digital Audio / 5.1 / 48 kHz / 640 kbps

********************
PLAYLIST: 01103.MPLS
********************

Код:

Total   Video
Title                                                           Codec   Length  Movie Size      Disc Size       Bitrate Bitrate Main Audio Track                          Secondary Audio Track
-----                                                           ------  ------- --------------  --------------  ------- ------- ------------------                        ---------------------
01103.MPLS                                                      VC-1    0:00:23 64 106 496      37 130 096 069  21,69   20,02   DD AC3 5.1 640Kbps


Код:

DISC INFO:

Disc Title:     WHAT_DREAMS_MAY_COME_BD_HDCLUB_BY_VOLSHEBNIK
Disc Size:      37 130 096 069 bytes
Protection:     AACS
BD-Java:        Yes
BDInfo:         0.5.2

PLAYLIST REPORT:

Name:                   01103.MPLS
Size:                   64 106 496 bytes
Length:                 0:00:23 (h:m:s)
Total Bitrate:          21,69 Mbps
Description:

VIDEO:

Codec                   Bitrate             Description
-----                   -------             -----------
VC-1 Video              20019 kbps          1080p / 23,976 fps / 16:9 / Advanced Profile 3

AUDIO:

Codec                           Language        Bitrate         Description
-----                           --------        -------         -----------
Dolby Digital Audio             English         640 kbps        5.1 / 48 kHz / 640 kbps

FILES:

Name            Time In         Length          Size            Total Bitrate
----            -------         ------          ----            -------------
50058.M2TS      0:00:00.000     0:00:23.648     64 106 496      21 686

CHAPTERS:

Number          Time In         Length          Avg Video Rate  Max 1-Sec Rate  Max 1-Sec Time  Max 5-Sec Rate  Max 5-Sec Time  Max 10Sec Rate  Max 10Sec Time  Avg Frame Size  Max Frame Size  Max Frame Time
------          -------         ------          --------------  --------------  --------------  --------------  --------------  --------------  --------------  --------------  --------------  --------------
1               0:00:00.000     0:00:23.648     20 019 kbps     43 839 kbps     00:00:07.966    36 473 kbps     00:00:07.048    32 577 kbps     00:00:04.713    108 781 bytes   471 987 bytes   00:00:08.591

STREAM DIAGNOSTICS:

File            PID             Type            Codec           Language                Seconds                 Bitrate                 Bytes           Packets
----            ---             ----            -----           --------                --------------          --------------          -------------   -----
50058.M2TS      4113 (0x1011)   0xEA            VC-1                                    23,565                  20 090                  59 176 948      321 957
50058.M2TS      4352 (0x1100)   0x81            AC3             eng (English)           23,565                  643                     1 894 400       11 100


QUICK SUMMARY:

Disc Title: WHAT_DREAMS_MAY_COME_BD_HDCLUB_BY_VOLSHEBNIK
Disc Size: 37 130 096 069 bytes
Protection: AACS
BD-Java: Yes
Playlist: 01103.MPLS
Size: 64 106 496 bytes
Length: 0:00:23
Total Bitrate: 21,69 Mbps
Video: VC-1 Video / 20019 kbps / 1080p / 23,976 fps / 16:9 / Advanced Profile 3
Audio: English / Dolby Digital Audio / 5.1 / 48 kHz / 640 kbps

********************
PLAYLIST: 00012.MPLS
********************

Код:

Total   Video
Title                                                           Codec   Length  Movie Size      Disc Size       Bitrate Bitrate Main Audio Track                          Secondary Audio Track
-----                                                           ------  ------- --------------  --------------  ------- ------- ------------------                        ---------------------
00012.MPLS                                                      VC-1    0:00:14 31 291 392      37 130 096 069  17,86   16,58   DD AC3 5.1 448Kbps


Код:

DISC INFO:

Disc Title:     WHAT_DREAMS_MAY_COME_BD_HDCLUB_BY_VOLSHEBNIK
Disc Size:      37 130 096 069 bytes
Protection:     AACS
BD-Java:        Yes
BDInfo:         0.5.2

PLAYLIST REPORT:

Name:                   00012.MPLS
Size:                   31 291 392 bytes
Length:                 0:00:14 (h:m:s)
Total Bitrate:          17,86 Mbps
Description:

VIDEO:

Codec                   Bitrate             Description
-----                   -------             -----------
VC-1 Video              16583 kbps          1080p / 23,976 fps / 16:9 / Advanced Profile 3

AUDIO:

Codec                           Language        Bitrate         Description
-----                           --------        -------         -----------
Dolby Digital Audio             English         448 kbps        5.1 / 48 kHz / 448 kbps

FILES:

Name            Time In         Length          Size            Total Bitrate
----            -------         ------          ----            -------------
00001.M2TS      0:00:00.000     0:00:14.014     31 291 392      17 863

CHAPTERS:

Number          Time In         Length          Avg Video Rate  Max 1-Sec Rate  Max 1-Sec Time  Max 5-Sec Rate  Max 5-Sec Time  Max 10Sec Rate  Max 10Sec Time  Avg Frame Size  Max Frame Size  Max Frame Time
------          -------         ------          --------------  --------------  --------------  --------------  --------------  --------------  --------------  --------------  --------------  --------------
1               0:00:00.000     0:00:14.014     16 583 kbps     34 287 kbps     00:00:02.502    23 404 kbps     00:00:02.544    21 711 kbps     00:00:01.668    92 218 bytes    403 709 bytes   00:00:03.461

STREAM DIAGNOSTICS:

File            PID             Type            Codec           Language                Seconds                 Bitrate                 Bytes           Packets
----            ---             ----            -----           --------                --------------          --------------          -------------   -----
00001.M2TS      4113 (0x1011)   0xEA            VC-1                                    13,931                  16 682                  29 048 641      158 078
00001.M2TS      4352 (0x1100)   0x81            AC3             eng (English)           13,931                  451                     784 896         4 380


QUICK SUMMARY:

Disc Title: WHAT_DREAMS_MAY_COME_BD_HDCLUB_BY_VOLSHEBNIK
Disc Size: 37 130 096 069 bytes
Protection: AACS
BD-Java: Yes
Playlist: 00012.MPLS
Size: 31 291 392 bytes
Length: 0:00:14
Total Bitrate: 17,86 Mbps
Video: VC-1 Video / 16583 kbps / 1080p / 23,976 fps / 16:9 / Advanced Profile 3
Audio: English / Dolby Digital Audio / 5.1 / 48 kHz / 448 kbps

********************
PLAYLIST: 00200.MPLS
********************

Код:

Total   Video
Title                                                           Codec   Length  Movie Size      Disc Size       Bitrate Bitrate Main Audio Track                          Secondary Audio Track
-----                                                           ------  ------- --------------  --------------  ------- ------- ------------------                        ---------------------
00200.MPLS                                                      VC-1    0:00:12 22 450 176      37 130 096 069  14,95   13,75   DD AC3 2.0 448Kbps


Код:

DISC INFO:

Disc Title:     WHAT_DREAMS_MAY_COME_BD_HDCLUB_BY_VOLSHEBNIK
Disc Size:      37 130 096 069 bytes
Protection:     AACS
BD-Java:        Yes
BDInfo:         0.5.2

PLAYLIST REPORT:

Name:                   00200.MPLS
Size:                   22 450 176 bytes
Length:                 0:00:12 (h:m:s)
Total Bitrate:          14,95 Mbps
Description:

VIDEO:

Codec                   Bitrate             Description
-----                   -------             -----------
VC-1 Video              13751 kbps          1080p / 23,976 fps / 16:9 / Advanced Profile 3

AUDIO:

Codec                           Language        Bitrate         Description
-----                           --------        -------         -----------
Dolby Digital Audio             English         448 kbps        2.0 / 48 kHz / 448 kbps

SUBTITLES:

Codec                           Language        Bitrate         Description
-----                           --------        -------         -----------
Presentation Graphics           Portuguese      38,618 kbps

FILES:

Name            Time In         Length          Size            Total Bitrate
----            -------         ------          ----            -------------
50112.M2TS      0:00:00.000     0:00:12.011     22 450 176      14 952

CHAPTERS:

Number          Time In         Length          Avg Video Rate  Max 1-Sec Rate  Max 1-Sec Time  Max 5-Sec Rate  Max 5-Sec Time  Max 10Sec Rate  Max 10Sec Time  Avg Frame Size  Max Frame Size  Max Frame Time
------          -------         ------          --------------  --------------  --------------  --------------  --------------  --------------  --------------  --------------  --------------  --------------
1               0:00:00.000     0:00:12.011     13 751 kbps     41 407 kbps     00:00:07.632    29 627 kbps     00:00:06.464    15 827 kbps     00:00:01.459    71 941 bytes    545 998 bytes   00:00:08.466

STREAM DIAGNOSTICS:

File            PID             Type            Codec           Language                Seconds                 Bitrate                 Bytes           Packets
----            ---             ----            -----           --------                --------------          --------------          -------------   -----
50112.M2TS      4113 (0x1011)   0xEA            VC-1                                    11,887                  13 896                  20 646 950      112 397
50112.M2TS      4352 (0x1100)   0x81            AC3             eng (English)           11,887                  453                     673 792         3 760
50112.M2TS      4608 (0x1200)   0x90            PGS             por (Portuguese)        11,887                  39                      57 985          337


QUICK SUMMARY:

Disc Title: WHAT_DREAMS_MAY_COME_BD_HDCLUB_BY_VOLSHEBNIK
Disc Size: 37 130 096 069 bytes
Protection: AACS
BD-Java: Yes
Playlist: 00200.MPLS
Size: 22 450 176 bytes
Length: 0:00:12
Total Bitrate: 14,95 Mbps
Video: VC-1 Video / 13751 kbps / 1080p / 23,976 fps / 16:9 / Advanced Profile 3
Audio: English / Dolby Digital Audio / 2.0 / 48 kHz / 448 kbps
Subtitle: Portuguese / 38,618 kbps
За представленный релиз спасибо: Volshebnik

Этот торрент недоступен для скачивания без регистрации, однако доступен по публичной magnet-ссылке (источники с публичных трекеров). Перед использованием ссылки прочтите, пожалуйста Пользовательское соглашение, а также как можно дольше оставайтесь на раздаче! Для того, чтобы скачать сам торрент-файл (который видит больше источников), а также для того, чтобы поблагодарить релизера, вам необходимо зарегистрироваться. Если регистрироваться лень - вы можете также попробовать скачать релиз по нашим партнерским ссылкам ниже. Кроме того, зарегистрированным пользователям не показывается всплывающая реклама при скачивании.

[underverse.su].t37165.torrent
Трекер: Зарегистрирован   [ 13.03.2014 08:13 ]  

Статус: проверено (by Паукан at 14.03.2014 08:10)
Поблагодарили: 1 человек
Тип торрента: публичный - доступные источники с открытых трекеров: 
Размер: 34,58 GB (занимает 7,9 DVDR, для записи нужно 8 болванок DVDR/RW)
 
 

8ad_R060d Пол:Муж

13-Мар-2014 09:01

Робин Уильямс - один из моих любимых актёров!

garry Пол:Муж

13-Мар-2014 09:38

8ad_R060d
но фильм туфта :D

8ad_R060d Пол:Муж

15-Мар-2014 10:51

На вкус и цвет фломастеры разные©, мне живопись нраицца, и фильм тоже произвёл впечатление.
Конечно, это фантазия, но добрая.

Яндекс.Метрика powered by Sphinx


В Н И М А Н И Е
Сайт не распространяет и не хранит электронные версии произведений, а лишь бесплатно и без коммерческой выгоды (не требуя взамен платы,
SMS и т.д.) предоставляет доступ к создаваемому пользователями каталогу ссылок на торрент-файлы, которые содержат только списки хеш-сумм.
Убедительная просьба с жалобами обращаться напрямую к пользователю, разместившему торрент файл.

Вверх