Loading...
Error

(Electro, Trip Hop) Terranova - Digital Tenderness - (2004) [FLAC (image+.cue), lossless]

Статистика раздачи
Размер:  290 MB   |    Зарегистрирован:  4 года 6 месяцев   |    Скачан:  2 раза

Полного источника не было: 12 дней

Сидов:  0  |  0 KB/s  ]   Личеров:  0  |  0 KB/s  ]

* - сиды/пиры с внешних источников

   
 
Автор Сообщение

8ad_R060d Пол:Муж

24-Мар-2014 10:33

Terranova - Digital Tenderness


Жанр: Electronic, Trip Hop
Год выпуска: 2004
Производитель диска: Ministry Of Sound – 0010122MIN
Аудиокодек: FLAC
Тип рипа: image+.cue
Битрейт аудио: lossless
Продолжительность: 00:47:23
Треклист:

1 Grounded 4:13
2 Common Places 4:09
3 Cause4 Effect 3:45
4 The Real Thing 4:07
5 Hush 3:37
6 Das Plan 3:45
7 Back In Time 4:01
8 Storm 3:12
9 Stigma 3:28
10 Hidden Dreams 4:39
11 Assimilate 4:04
12 Ground Of Original Nature 4:00


Exact Audio Copy V0.99 prebeta 5 from 4. May 2009

EAC extraction logfile from 13. June 2010, 21:35

Terranova / Digital Tenderness

Used drive : TSSTcorpCD/DVDW TS-H552U Adapter: 1 ID: 0

Read mode : Secure
Utilize accurate stream : Yes
Defeat audio cache : Yes
Make use of C2 pointers : No

Read offset correction : 12
Overread into Lead-In and Lead-Out : No
Fill up missing offset samples with silence : Yes
Delete leading and trailing silent blocks : No
Null samples used in CRC calculations : Yes
Used interface : Native Win32 interface for Win NT & 2000

Used output format : User Defined Encoder
Selected bitrate : 768 kBit/s
Quality : High
Add ID3 tag : No
Command line compressor : C:\Program Files\Exact Audio Copy\FLAC\FLAC.EXE
Additional command line options : -8 -V %s

TOC of the extracted CD

Track | Start | Length | Start sector | End sector
---------------------------------------------------------
1 | 0:00.00 | 4:15.39 | 0 | 19163
2 | 4:15.39 | 4:12.11 | 19164 | 38074
3 | 8:27.50 | 3:46.09 | 38075 | 55033
4 | 12:13.59 | 4:08.63 | 55034 | 73696
5 | 16:22.47 | 3:39.22 | 73697 | 90143
6 | 20:01.69 | 3:45.36 | 90144 | 107054
7 | 23:47.30 | 4:03.69 | 107055 | 125348
8 | 27:51.24 | 3:12.36 | 125349 | 139784
9 | 31:03.60 | 3:30.62 | 139785 | 155596
10 | 34:34.47 | 4:41.04 | 155597 | 176675
11 | 39:15.51 | 4:06.49 | 176676 | 195174
12 | 43:22.25 | 4:01.15 | 195175 | 213264

Range status and errors

Selected range

Filename F:\Downloads\Terranova (2004) - Digital Tenderness [FLAC]\Terranova - Digital Tenderness.wav

Peak level 100.0 %
Range quality 100.0 %
Test CRC 251FF0FC
Copy CRC 251FF0FC
Copy OK

No errors occurred

AccurateRip summary

Track 1 cannot be verified as accurate (confidence 3) [868A4718], AccurateRip returned [919FA713]
Track 2 cannot be verified as accurate (confidence 3) [2F944A25], AccurateRip returned [32946348]
Track 3 cannot be verified as accurate (confidence 3) [4EC7EFED], AccurateRip returned [44067656]
Track 4 cannot be verified as accurate (confidence 3) [EC0F4CE9], AccurateRip returned [90071E95]
Track 5 cannot be verified as accurate (confidence 3) [D0F3DAEC], AccurateRip returned [E3949604]
Track 6 cannot be verified as accurate (confidence 3) [F236D577], AccurateRip returned [C0750AA8]
Track 7 cannot be verified as accurate (confidence 3) [5C7BEFA9], AccurateRip returned [173045CB]
Track 8 cannot be verified as accurate (confidence 3) [886C6A4D], AccurateRip returned [7E6FFFDD]
Track 9 cannot be verified as accurate (confidence 3) [E6672D22], AccurateRip returned [835BC1E1]
Track 10 cannot be verified as accurate (confidence 3) [941274EA], AccurateRip returned [BFE4B5D3]
Track 11 cannot be verified as accurate (confidence 3) [DC27332F], AccurateRip returned [36393785]
Track 12 cannot be verified as accurate (confidence 3) [613BD09D], AccurateRip returned [48799B2E]

No tracks could be verified as accurate
You may have a different pressing from the one(s) in the database

End of status report
REM GENRE Electronic
REM DATE 2004
REM DISCID A90B1B0C
REM COMMENT "ExactAudioCopy v0.99pb5"
PERFORMER "Terranova"
TITLE "Digital Tenderness"
FILE "Terranova - Digital Tenderness.flac" WAVE
TRACK 01 AUDIO
TITLE "Grounded"
PERFORMER "Terranova"
INDEX 01 00:00:00
TRACK 02 AUDIO
TITLE "Common Places"
PERFORMER "Terranova"
INDEX 00 04:14:14
INDEX 01 04:15:39
TRACK 03 AUDIO
TITLE "Cause4 Effect"
PERFORMER "Terranova"
INDEX 00 08:25:48
INDEX 01 08:27:50
TRACK 04 AUDIO
TITLE "The Real Thing"
PERFORMER "Terranova"
INDEX 00 12:13:56
INDEX 01 12:13:59
TRACK 05 AUDIO
TITLE "Hush"
PERFORMER "Terranova"
INDEX 00 16:21:45
INDEX 01 16:22:47
TRACK 06 AUDIO
TITLE "Das Plan"
PERFORMER "Terranova"
INDEX 00 19:59:67
INDEX 01 20:01:69
TRACK 07 AUDIO
TITLE "Back In Time"
PERFORMER "Terranova"
INDEX 00 23:47:28
INDEX 01 23:47:30
TRACK 08 AUDIO
TITLE "Storm"
PERFORMER "Terranova"
INDEX 00 27:49:22
INDEX 01 27:51:24
TRACK 09 AUDIO
TITLE "Stigma"
PERFORMER "Terranova"
INDEX 00 31:03:58
INDEX 01 31:03:60
TRACK 10 AUDIO
TITLE "Hidden Dreams"
PERFORMER "Terranova"
INDEX 00 34:32:45
INDEX 01 34:34:47
TRACK 11 AUDIO
TITLE "Assimilate"
PERFORMER "Terranova"
INDEX 00 39:14:27
INDEX 01 39:15:51
TRACK 12 AUDIO
TITLE "Ground Of Original Nature"
PERFORMER "Terranova"
INDEX 00 43:20:01
INDEX 01 43:22:25

Этот торрент недоступен для скачивания без регистрации, однако доступен по публичной magnet-ссылке (источники с публичных трекеров). Перед использованием ссылки прочтите, пожалуйста Пользовательское соглашение, а также как можно дольше оставайтесь на раздаче! Для того, чтобы скачать сам торрент-файл (который видит больше источников), а также для того, чтобы поблагодарить релизера, вам необходимо зарегистрироваться. Если регистрироваться лень - вы можете также попробовать скачать релиз по нашим партнерским ссылкам ниже. Кроме того, зарегистрированным пользователям не показывается всплывающая реклама при скачивании.

[underverse.su].t37535.torrent
Трекер: Зарегистрирован   [ 24.03.2014 10:33 ]  

Статус: проверено (by Бишеп at 24.03.2014 11:45)
Поблагодарили: пока никто не поблагодарил...
Тип торрента: публичный - доступные источники с открытых трекеров: 
Размер: 290 MB (занимает 0,06 DVDR, для записи нужно 1 болванка DVDR/RW)
 
 
Похожие темы
Форум Тема Автор Торрент Отв. Посл. сооб.
Зарубежная Pop Музыка (Electro, Pop, Soul) Sam Smith - Nirvana-EP (2014) [MP3, 320 kbps] 90ytr90
1 | 0

0 | 457

4

11.11.2016 14:59

Techno (Electro, Techno, Experimental) Dopplereffekt - Cellular Automata (2017) [MP3, 320 kbps CBR] Darkferse
3 | 0

0 | 867

2

09.04.2017 00:04

Techno (Electro, Techno) U96 - Das Boot 2017 (2017) [MP3, 320 kbps CBR] Darkferse
9 | 0

0 | 759

4

10.09.2017 09:41

Electro, Breakbeat, Dubstep (Electro, IDM, Techno) DMX Krew - Strange Directions (2017) [MP3, 320 kbps CBR] Darkferse
5 | 1

0 | 574

2

05.09.2017 14:17

Electro, Breakbeat, Dubstep (Electro, Tech House) Fatima Yamaha - Imaginary Lines (2015) [MP3, 320 kbps CBR] Darkferse
2 | 1

0 | 353

4

10.01.2018 20:35

EBM, Industrial, Dark Electro, Darkwave, Gothic Synth (Electro, EBM, Techno, Industrial) Nachtmahr - Unbeugsam (Best Of & Rarities 2007-2017) (2017) [MP3, 320 kbps] ANDRAKO
7 | 0

0 | 986

3

24.02.2017 11:08

Synthpop, Futurepop, Electropop, Spacesynth (Electro, Synthpop, Synthwave) Analog 80 - Discography (2013-2017) [MP3, 320 kbps CBR] Darkferse
5 | 0

0 | 577

4

08.01.2018 20:32

Сборники (Electro, EBM, Industrial) VA - Album of the Year (2016) [MP3, 320 kbps] ANDRAKO
1 | 0

0 | 755

4

09.01.2017 11:02

Electro, Breakbeat (Lossless) (Electro, Breakbeat, Techno) Terranova - Peace Is Tough (2003) [FLAC (image+.cue), lossless] 8ad_R060d
2 | 1

0 | 1895

5

24.03.2014 11:10

EBM, Industrial, Dark Electro, Darkwave, Gothic Synth (Lossless) (Electro, Darkwave) In Strict Confidence - Morpheus (2012) [FLAC (Tracks+.CUE), lossless] Jimmy
2 | 0

0 | 1782

3

21.09.2012 18:34


Яндекс.Метрика powered by Sphinx


В Н И М А Н И Е
Сайт не распространяет и не хранит электронные версии произведений, а лишь бесплатно и без коммерческой выгоды (не требуя взамен платы,
SMS и т.д.) предоставляет доступ к создаваемому пользователями каталогу ссылок на торрент-файлы, которые содержат только списки хеш-сумм.
Убедительная просьба с жалобами обращаться напрямую к пользователю, разместившему торрент файл.

Вверх