Loading...
Error

(Electronic, Trip-Hop) Massive Attack - Collected - 2CD (2006) [FLAC (tracks+.cue), lossless]

Статистика раздачи
Размер:  1,05 GB   |    Зарегистрирован:  4 года 8 месяцев   |    Скачан:  11 раз

Полного источника не было: 19 часов

Сидов:  0  |  0 KB/s  ]   Личеров:  0  |  0 KB/s  ]

* - сиды/пиры с внешних источников

   
 
Автор Сообщение

8ad_R060d Пол:Муж

27-Мар-2014 13:07

Massive Attack - Collected

Жанр: Electronic, Trip Hop
Год выпуска: 2006
Производитель диска: UK, Virgin (CDVX3017 0094635570526)
Аудиокодек: FLAC (*.flac)
Тип рипа: tracks+.cue
Битрейт аудио: lossless
Продолжительность: CD 1: 00:78:44, CD 2: 00:51:14
Наличие сканов в содержимом раздачи: да (600 dpi, jpeg)


Треклист:
01. Safe From Harm
02. Karmacoma
03. Angel
04. Teardrop
05. Inertia Creeps
06. Protection
07. Butterfly Caught
08. Unfinished Symphony
09. Risingson
10. What Your Soul Sings
11. Future Proof
12. Five Man Army
13. Sly
14. Live With Me
01. False Flags
02. Incantations (Feat. Horace Andy)
03. Silent Spring (Feat. Elizabeth Fraser)
04. Bullet Boy
05. Black Melt (Feat. Elizabeth Fraser)
06. Joy Luck Club
07. Small Time Shoot 'em Up (Feat. Damon Albarns)
08. I Against I (Feat. Mos Def)
09. I Want You (Feat. Madonna)
10. Danny The Dog (Feat. Lorna Marshall)

Иформация о данном издании

pic pic

Exact Audio Copy V0.99 prebeta 5 from 4. May 2009

EAC extraction logfile from 9. March 2012, 2:41

Massive Attack / Collected (CD 1)

Used drive : Optiarc DVD RW AD-7200S Adapter: 2 ID: 0

Read mode : Secure
Utilize accurate stream : Yes
Defeat audio cache : Yes
Make use of C2 pointers : No

Read offset correction : 48
Overread into Lead-In and Lead-Out : No
Fill up missing offset samples with silence : Yes
Delete leading and trailing silent blocks : No
Null samples used in CRC calculations : Yes
Used interface : Installed external ASPI interface
Gap handling : Appended to previous track

Used output format : User Defined Encoder
Selected bitrate : 32 kBit/s
Quality : High
Add ID3 tag : No
Command line compressor : C:\Program Files\Exact Audio Copy\Flac\flac.exe
Additional command line options : -6 -V -T "ARTIST=%a" -T "TITLE=%t" -T "ALBUM=%g" -T "DATE=%y" -T "TRACKNUMBER=%n" -T "GENRE=%m" -T "COMMENT=%e" %s -o %d

TOC of the extracted CD

Track | Start | Length | Start sector | End sector
---------------------------------------------------------
1 | 0:00.00 | 5:19.37 | 0 | 23961
2 | 5:19.37 | 5:14.00 | 23962 | 47511
3 | 10:33.37 | 6:14.11 | 47512 | 75572
4 | 16:47.48 | 5:28.02 | 75573 | 100174
5 | 22:15.50 | 5:54.33 | 100175 | 126757
6 | 28:10.08 | 7:45.27 | 126758 | 161659
7 | 35:55.35 | 5:08.38 | 161660 | 184797
8 | 41:03.73 | 5:12.22 | 184798 | 208219
9 | 46:16.20 | 4:57.47 | 208220 | 230541
10 | 51:13.67 | 6:37.17 | 230542 | 260333
11 | 57:51.09 | 5:42.72 | 260334 | 286055
12 | 63:34.06 | 5:21.65 | 286056 | 310195
13 | 68:55.71 | 4:56.49 | 310196 | 332444
14 | 73:52.45 | 4:51.09 | 332445 | 354278

Track 1

Filename C:\Massive Attack 2006 - Collected [Virgin CDVX3017 0094635570526]\CD 1\01 - Safe From Harm.wav

Pre-gap length 0:00:02.00

Peak level 99.9 %
Track quality 100.0 %
Test CRC 61012401
Copy CRC 61012401
Accurately ripped (confidence 200) [1C1DB056]
Copy OK

Track 2

Filename C:\Massive Attack 2006 - Collected [Virgin CDVX3017 0094635570526]\CD 1\02 - Karmacoma.wav

Peak level 100.0 %
Track quality 100.0 %
Test CRC F06E4479
Copy CRC F06E4479
Accurately ripped (confidence 200) [CEE9E117]
Copy OK

Track 3

Filename C:\Massive Attack 2006 - Collected [Virgin CDVX3017 0094635570526]\CD 1\03 - Angel.wav

Peak level 99.9 %
Track quality 100.0 %
Test CRC D66267DC
Copy CRC D66267DC
Accurately ripped (confidence 200) [677905E4]
Copy OK

Track 4

Filename C:\Massive Attack 2006 - Collected [Virgin CDVX3017 0094635570526]\CD 1\04 - Teardrop.wav

Pre-gap length 0:00:01.24

Peak level 100.0 %
Track quality 100.0 %
Test CRC 0F3A9E03
Copy CRC 0F3A9E03
Accurately ripped (confidence 200) [6998CE70]
Copy OK

Track 5

Filename C:\Massive Attack 2006 - Collected [Virgin CDVX3017 0094635570526]\CD 1\05 - Inertia Creeps.wav

Peak level 100.0 %
Track quality 100.0 %
Test CRC C633F2C8
Copy CRC C633F2C8
Accurately ripped (confidence 200) [19FDE933]
Copy OK

Track 6

Filename C:\Massive Attack 2006 - Collected [Virgin CDVX3017 0094635570526]\CD 1\06 - Protection.wav

Peak level 100.0 %
Track quality 100.0 %
Test CRC 80274F81
Copy CRC 80274F81
Accurately ripped (confidence 200) [D008024E]
Copy OK

Track 7

Filename C:\Massive Attack 2006 - Collected [Virgin CDVX3017 0094635570526]\CD 1\07 - Butterfly Caught.wav

Peak level 99.8 %
Track quality 100.0 %
Test CRC 50104277
Copy CRC 50104277
Accurately ripped (confidence 200) [4BC12C93]
Copy OK

Track 8

Filename C:\Massive Attack 2006 - Collected [Virgin CDVX3017 0094635570526]\CD 1\08 - Unfinished Symphony.wav

Peak level 100.0 %
Track quality 100.0 %
Test CRC 6206F723
Copy CRC 6206F723
Accurately ripped (confidence 200) [35DCA782]
Copy OK

Track 9

Filename C:\Massive Attack 2006 - Collected [Virgin CDVX3017 0094635570526]\CD 1\09 - Risingson.wav

Peak level 99.9 %
Track quality 100.0 %
Test CRC C35546A7
Copy CRC C35546A7
Accurately ripped (confidence 200) [D8F25E48]
Copy OK

Track 10

Filename C:\Massive Attack 2006 - Collected [Virgin CDVX3017 0094635570526]\CD 1\10 - What Your Soul Sings.wav

Peak level 99.8 %
Track quality 100.0 %
Test CRC C5C84314
Copy CRC C5C84314
Accurately ripped (confidence 200) [E5721F6A]
Copy OK

Track 11

Filename C:\Massive Attack 2006 - Collected [Virgin CDVX3017 0094635570526]\CD 1\11 - Future Proof.wav

Peak level 99.9 %
Track quality 100.0 %
Test CRC CD98A93C
Copy CRC CD98A93C
Accurately ripped (confidence 200) [8F7AF617]
Copy OK

Track 12

Filename C:\Massive Attack 2006 - Collected [Virgin CDVX3017 0094635570526]\CD 1\12 - Five Man Army.wav

Pre-gap length 0:00:01.08

Peak level 98.9 %
Track quality 100.0 %
Test CRC 5043F52E
Copy CRC 5043F52E
Accurately ripped (confidence 200) [304FFD81]
Copy OK

Track 13

Filename C:\Massive Attack 2006 - Collected [Virgin CDVX3017 0094635570526]\CD 1\13 - Sly.wav

Pre-gap length 0:00:00.18

Peak level 100.0 %
Track quality 100.0 %
Test CRC 96120E93
Copy CRC 96120E93
Accurately ripped (confidence 200) [A126162B]
Copy OK

Track 14

Filename C:\Massive Attack 2006 - Collected [Virgin CDVX3017 0094635570526]\CD 1\14 - Live With Me.wav

Pre-gap length 0:00:00.60

Peak level 99.8 %
Track quality 100.0 %
Test CRC 2D6834CF
Copy CRC 2D6834CF
Accurately ripped (confidence 200) [4D9B2624]
Copy OK

All tracks accurately ripped

No errors occurred

End of status report
Exact Audio Copy V0.99 prebeta 5 from 4. May 2009

EAC extraction logfile from 9. March 2012, 3:25

Massive Attack / Collected (CD 2)

Used drive : Optiarc DVD RW AD-7200S Adapter: 2 ID: 0

Read mode : Secure
Utilize accurate stream : Yes
Defeat audio cache : Yes
Make use of C2 pointers : No

Read offset correction : 48
Overread into Lead-In and Lead-Out : No
Fill up missing offset samples with silence : Yes
Delete leading and trailing silent blocks : No
Null samples used in CRC calculations : Yes
Used interface : Installed external ASPI interface
Gap handling : Appended to previous track

Used output format : User Defined Encoder
Selected bitrate : 32 kBit/s
Quality : High
Add ID3 tag : No
Command line compressor : C:\Program Files\Exact Audio Copy\Flac\flac.exe
Additional command line options : -6 -V -T "ARTIST=%a" -T "TITLE=%t" -T "ALBUM=%g" -T "DATE=%y" -T "TRACKNUMBER=%n" -T "GENRE=%m" -T "COMMENT=%e" %s -o %d

TOC of the extracted CD

Track | Start | Length | Start sector | End sector
---------------------------------------------------------
1 | 0:00.00 | 5:40.64 | 0 | 25563
2 | 5:40.64 | 3:19.22 | 25564 | 40510
3 | 9:00.11 | 3:07.34 | 40511 | 54569
4 | 12:07.45 | 4:04.53 | 54570 | 72922
5 | 16:12.23 | 5:12.41 | 72923 | 96363
6 | 21:24.64 | 4:58.32 | 96364 | 118745
7 | 26:23.21 | 6:44.39 | 118746 | 149084
8 | 33:07.60 | 5:42.18 | 149085 | 174752
9 | 38:50.03 | 6:21.08 | 174753 | 203335
10 | 45:11.11 | 6:02.30 | 203336 | 230515

Track 1

Filename C:\Massive Attack 2006 - Collected [Virgin CDVX3017 0094635570526]\CD 2\01 - False Flags.wav

Pre-gap length 0:00:02.00

Peak level 97.5 %
Track quality 100.0 %
Test CRC C4F6AF32
Copy CRC C4F6AF32
Accurately ripped (confidence 112) [3B6DD708]
Copy OK

Track 2

Filename C:\Massive Attack 2006 - Collected [Virgin CDVX3017 0094635570526]\CD 2\02 - Incantations (Feat. Horace Andy).wav

Peak level 98.0 %
Track quality 100.0 %
Test CRC 9CED6AA6
Copy CRC 9CED6AA6
Accurately ripped (confidence 114) [1A5B4040]
Copy OK

Track 3

Filename C:\Massive Attack 2006 - Collected [Virgin CDVX3017 0094635570526]\CD 2\03 - Silent Spring (Feat. Elizabeth Fraser).wav

Peak level 98.6 %
Track quality 100.0 %
Test CRC 7E9D0AC2
Copy CRC 7E9D0AC2
Accurately ripped (confidence 111) [CA096FEA]
Copy OK

Track 4

Filename C:\Massive Attack 2006 - Collected [Virgin CDVX3017 0094635570526]\CD 2\04 - Bullet Boy.wav

Peak level 98.6 %
Track quality 99.9 %
Test CRC 8B276F92
Copy CRC 8B276F92
Accurately ripped (confidence 112) [C3930D78]
Copy OK

Track 5

Filename C:\Massive Attack 2006 - Collected [Virgin CDVX3017 0094635570526]\CD 2\05 - Black Melt (Feat. Elizabeth Fraser).wav

Peak level 98.7 %
Track quality 100.0 %
Test CRC CDD557B7
Copy CRC CDD557B7
Accurately ripped (confidence 113) [340EC90E]
Copy OK

Track 6

Filename C:\Massive Attack 2006 - Collected [Virgin CDVX3017 0094635570526]\CD 2\06 - Joy Luck Club.wav

Peak level 96.9 %
Track quality 100.0 %
Test CRC 5EC15922
Copy CRC 5EC15922
Accurately ripped (confidence 114) [24588228]
Copy OK

Track 7

Filename C:\Massive Attack 2006 - Collected [Virgin CDVX3017 0094635570526]\CD 2\07 - Small Time Shoot 'em Up (Feat. Damon Albarns).wav

Peak level 98.9 %
Track quality 100.0 %
Test CRC D95B04E4
Copy CRC D95B04E4
Accurately ripped (confidence 114) [5594A374]
Copy OK

Track 8

Filename C:\Massive Attack 2006 - Collected [Virgin CDVX3017 0094635570526]\CD 2\08 - I Against I (Feat. Mos Def).wav

Peak level 99.9 %
Track quality 100.0 %
Test CRC D018B1FD
Copy CRC D018B1FD
Accurately ripped (confidence 113) [5C0895F3]
Copy OK

Track 9

Filename C:\Massive Attack 2006 - Collected [Virgin CDVX3017 0094635570526]\CD 2\09 - I Want You (Feat. Madonna).wav

Peak level 100.0 %
Track quality 100.0 %
Test CRC C80CD0F9
Copy CRC C80CD0F9
Accurately ripped (confidence 109) [CD54F372]
Copy OK

Track 10

Filename C:\Massive Attack 2006 - Collected [Virgin CDVX3017 0094635570526]\CD 2\10 - Danny The Dog (Feat. Lorna Marshall).wav

Peak level 99.5 %
Track quality 100.0 %
Test CRC 1E4ADC44
Copy CRC 1E4ADC44
Accurately ripped (confidence 104) [8A5AEC78]
Copy OK

All tracks accurately ripped

No errors occurred

End of status report

REM GENRE Trip-Hop
REM DATE 2006
REM DISCID C812730E
REM COMMENT "ExactAudioCopy v0.99pb5"
PERFORMER "Massive Attack"
TITLE "Collected (CD 1)"
FILE "01 - Safe From Harm.wav" WAVE
TRACK 01 AUDIO
TITLE "Safe From Harm"
PERFORMER "Massive Attack"
INDEX 01 00:00:00
FILE "02 - Karmacoma.wav" WAVE
TRACK 02 AUDIO
TITLE "Karmacoma"
PERFORMER "Massive Attack"
INDEX 01 00:00:00
FILE "03 - Angel.wav" WAVE
TRACK 03 AUDIO
TITLE "Angel"
PERFORMER "Massive Attack"
INDEX 01 00:00:00
TRACK 04 AUDIO
TITLE "Teardrop"
PERFORMER "Massive Attack"
INDEX 00 06:12:68
FILE "04 - Teardrop.wav" WAVE
INDEX 01 00:00:00
FILE "05 - Inertia Creeps.wav" WAVE
TRACK 05 AUDIO
TITLE "Inertia Creeps"
PERFORMER "Massive Attack"
INDEX 01 00:00:00
FILE "06 - Protection.wav" WAVE
TRACK 06 AUDIO
TITLE "Protection"
PERFORMER "Massive Attack"
INDEX 01 00:00:00
FILE "07 - Butterfly Caught.wav" WAVE
TRACK 07 AUDIO
TITLE "Butterfly Caught"
PERFORMER "Massive Attack"
INDEX 01 00:00:00
FILE "08 - Unfinished Symphony.wav" WAVE
TRACK 08 AUDIO
TITLE "Unfinished Symphony"
PERFORMER "Massive Attack"
INDEX 01 00:00:00
FILE "09 - Risingson.wav" WAVE
TRACK 09 AUDIO
TITLE "Risingson"
PERFORMER "Massive Attack"
INDEX 01 00:00:00
FILE "10 - What Your Soul Sings.wav" WAVE
TRACK 10 AUDIO
TITLE "What Your Soul Sings"
PERFORMER "Massive Attack"
INDEX 01 00:00:00
FILE "11 - Future Proof.wav" WAVE
TRACK 11 AUDIO
TITLE "Future Proof"
PERFORMER "Massive Attack"
INDEX 01 00:00:00
TRACK 12 AUDIO
TITLE "Five Man Army"
PERFORMER "Massive Attack"
INDEX 00 05:41:66
FILE "12 - Five Man Army.wav" WAVE
INDEX 01 00:00:00
TRACK 13 AUDIO
TITLE "Sly"
PERFORMER "Massive Attack"
INDEX 00 05:21:51
FILE "13 - Sly.wav" WAVE
INDEX 01 00:00:00
TRACK 14 AUDIO
TITLE "Live With Me"
PERFORMER "Massive Attack"
INDEX 00 04:56:04
FILE "14 - Live With Me.wav" WAVE
INDEX 01 00:00:00
REM GENRE Trip-Hop
REM DATE 2006
REM DISCID 920C010A
REM COMMENT "ExactAudioCopy v0.99pb5"
PERFORMER "Massive Attack"
TITLE "Collected (CD 2)"
FILE "01 - False Flags.wav" WAVE
TRACK 01 AUDIO
TITLE "False Flags"
PERFORMER "Massive Attack"
INDEX 01 00:00:00
FILE "02 - Incantations (Feat. Horace Andy).wav" WAVE
TRACK 02 AUDIO
TITLE "Incantations (Feat. Horace Andy)"
PERFORMER "Massive Attack"
INDEX 01 00:00:00
FILE "03 - Silent Spring (Feat. Elizabeth Fraser).wav" WAVE
TRACK 03 AUDIO
TITLE "Silent Spring (Feat. Elizabeth Fraser)"
PERFORMER "Massive Attack"
INDEX 01 00:00:00
FILE "04 - Bullet Boy.wav" WAVE
TRACK 04 AUDIO
TITLE "Bullet Boy"
PERFORMER "Massive Attack"
INDEX 01 00:00:00
FILE "05 - Black Melt (Feat. Elizabeth Fraser).wav" WAVE
TRACK 05 AUDIO
TITLE "Black Melt (Feat. Elizabeth Fraser)"
PERFORMER "Massive Attack"
INDEX 01 00:00:00
FILE "06 - Joy Luck Club.wav" WAVE
TRACK 06 AUDIO
TITLE "Joy Luck Club"
PERFORMER "Massive Attack"
INDEX 01 00:00:00
FILE "07 - Small Time Shoot 'em Up (Feat. Damon Albarns).wav" WAVE
TRACK 07 AUDIO
TITLE "Small Time Shoot 'em Up (Feat. Damon Albarns)"
PERFORMER "Massive Attack"
INDEX 01 00:00:00
FILE "08 - I Against I (Feat. Mos Def).wav" WAVE
TRACK 08 AUDIO
TITLE "I Against I (Feat. Mos Def)"
PERFORMER "Massive Attack"
INDEX 01 00:00:00
FILE "09 - I Want You (Feat. Madonna).wav" WAVE
TRACK 09 AUDIO
TITLE "I Want You (Feat. Madonna)"
PERFORMER "Massive Attack"
INDEX 01 00:00:00
FILE "10 - Danny The Dog (Feat. Lorna Marshall).wav" WAVE
TRACK 10 AUDIO
TITLE "Danny The Dog (Feat. Lorna Marshall)"
PERFORMER "Massive Attack"
INDEX 01 00:00:00

[CUETools log; Date: 09.03.2012 2:43:50; Version: 2.0.9]
[CTDB TOCID: K.ImGsv8jGVpk2y8R19Rc3Hnxus-] found.
[ CTDBID ] Status
[81f7b293] (001/395) Differs in 215 samples @67:58:34-67:58:35,67:58:56,68:01:02
[4e215d06] (001/395) No match
[de964fb0] (001/395) No match
[ab340de5] (001/395) Differs in 4 samples @17:11:33,22:24:41
[157c9261] (001/395) Differs in 3 samples @73:33:46
[0589e565] (390/395) Accurately ripped
[AccurateRip ID: 00293cae-01b813b9-c812730e] found.
Track [ CRC ] Status
01 [1c1db056] (200/535) Accurately ripped
02 [cee9e117] (200/535) Accurately ripped
03 [677905e4] (200/535) Accurately ripped
04 [6998ce70] (200/536) Accurately ripped
05 [19fde933] (200/534) Accurately ripped
06 [d008024e] (200/530) Accurately ripped
07 [4bc12c93] (200/534) Accurately ripped
08 [35dca782] (200/535) Accurately ripped
09 [d8f25e48] (200/534) Accurately ripped
10 [e5721f6a] (200/531) Accurately ripped
11 [8f7af617] (200/532) Accurately ripped
12 [304ffd81] (200/530) Accurately ripped
13 [a126162b] (200/527) Accurately ripped
14 [4d9b2624] (200/520) Accurately ripped
Offsetted by -664:
01 [b13308f6] (029/535) Accurately ripped
02 [dc05ccab] (028/535) Accurately ripped
03 [4c91f5c3] (028/535) Accurately ripped
04 [653de0d7] (028/536) Accurately ripped
05 [fcd614cb] (028/534) Accurately ripped
06 [fe3f51bd] (028/530) Accurately ripped
07 [d173607c] (028/534) Accurately ripped
08 [aaf0165c] (028/535) Accurately ripped
09 [5bfc2b0e] (028/534) Accurately ripped
10 [7bde37fe] (028/531) Accurately ripped
11 [dd0cd27c] (028/532) Accurately ripped
12 [b94340e9] (028/530) Accurately ripped
13 [d556cb00] (027/527) Accurately ripped
14 [d0150108] (027/520) Accurately ripped
Offsetted by -122:
01 [8d93e64f] (034/535) Accurately ripped
02 [207502d5] (034/535) Accurately ripped
03 [9598dd74] (034/535) Accurately ripped
04 [a2b7f493] (034/536) Accurately ripped
05 [231ebce1] (034/534) Accurately ripped
06 [ebb8b964] (034/530) Accurately ripped
07 [ad3bbe43] (034/534) Accurately ripped
08 [72e26c39] (034/535) Accurately ripped
09 [9e801cbf] (034/534) Accurately ripped
10 [2d9e7cae] (034/531) Accurately ripped
11 [fac4edf4] (034/532) Accurately ripped
12 [b3e52866] (034/530) Accurately ripped
13 [33fa3941] (034/527) Accurately ripped
14 [a41fab08] (034/520) Accurately ripped
Offsetted by -86:
01 [651190b9] (019/535) Accurately ripped
02 [43315116] (019/535) Accurately ripped
03 [23b6ab35] (019/535) Accurately ripped
04 [d5cf5df9] (019/536) Accurately ripped
05 [4a0ef858] (019/534) Accurately ripped
06 [2766fbc7] (019/530) Accurately ripped
07 [d524ae70] (019/534) Accurately ripped
08 [75003093] (019/535) Accurately ripped
09 [37ff8276] (019/534) Accurately ripped
10 [b6bdc2ae] (019/531) Accurately ripped
11 [bb858bff] (019/532) Accurately ripped
12 [c91250b2] (019/530) Accurately ripped
13 [dc8341ec] (019/527) Accurately ripped
14 [73b65a90] (019/520) Accurately ripped
Offsetted by -42:
01 [5a327baa] (004/535) Accurately ripped
02 [8fed72e4] (004/535) Accurately ripped
03 [28f2a554] (004/535) Accurately ripped
04 [e1f4f95b] (004/536) Accurately ripped
05 [da42fd20] (004/534) Accurately ripped
06 [ec4e55e6] (004/530) Accurately ripped
07 [ba85e07a] (004/534) Accurately ripped
08 [8bd279eb] (004/535) Accurately ripped
09 [2c8116f5] (004/534) Accurately ripped
10 [951b329a] (004/531) Accurately ripped
11 [e17994d1] (004/532) Accurately ripped
12 [3bd60913] (004/530) Accurately ripped
13 [6d994e8d] (004/527) Accurately ripped
14 [49f07640] (004/520) Accurately ripped
Offsetted by -18:
01 [bf503819] (003/535) Accurately ripped
02 [a3bc5dc1] (003/535) Accurately ripped
03 [d67d01ae] (003/535) Accurately ripped
04 [d8ed5a54] (003/536) Accurately ripped
05 [b170dfca] (003/534) Accurately ripped
06 [e7389a7a] (003/530) Accurately ripped
07 [3ce8dc81] (003/534) Accurately ripped
08 [03dd036a] (003/535) Accurately ripped
09 [ac77506a] (003/534) Accurately ripped
10 [da3433da] (003/531) Accurately ripped
11 [5742b6fc] (003/532) Accurately ripped
12 [726d2739] (003/530) Accurately ripped
13 [0edb212a] (003/527) Accurately ripped
14 [7259dc5e] (003/520) Accurately ripped
Offsetted by -12:
01 [856fcfd8] (164/535) Accurately ripped
02 [4db486dd] (164/535) Accurately ripped
03 [67232835] (165/535) Accurately ripped
04 [75c59db0] (165/536) Accurately ripped
05 [7c3e4fd3] (163/534) Accurately ripped
06 [39032bd1] (161/530) Accurately ripped
07 [ca59e234] (162/534) Accurately ripped
08 [01f0cdb5] (165/535) Accurately ripped
09 [a2d589f4] (162/534) Accurately ripped
10 [3b574109] (159/531) Accurately ripped
11 [032c21b5] (162/532) Accurately ripped
12 [fba9c903] (162/530) Accurately ripped
13 [1c4aa0f6] (159/527) Accurately ripped
14 [bba8f54e] (156/520) Accurately ripped
Offsetted by 30:
01 [a775adac] (002/535) Accurately ripped
02 [1d313fb1] (002/535) Accurately ripped
03 [53015ead] (002/535) Accurately ripped
04 [ddc93dce] (002/536) Accurately ripped
05 [209936a9] (002/534) Accurately ripped
06 [de47bc2c] (002/530) Accurately ripped
07 [6c4be4c3] (002/534) Accurately ripped
08 [280fb32d] (002/535) Accurately ripped
09 [42eee80d] (002/534) Accurately ripped
10 [efb84c34] (002/531) Accurately ripped
11 [7cd592b3] (002/532) Accurately ripped
12 [dc342767] (002/530) Accurately ripped
13 [119c25fc] (002/527) Accurately ripped
14 [b51699c8] (002/520) Accurately ripped
Offsetted by -66:
01 [57eb0015] (006/535) No match but offset
02 [b23298bb] (006/535) No match but offset
03 [64eaf78f] (006/535) No match but offset
04 [41a51fe2] (006/536) No match but offset
05 [d3d82870] (006/534) No match but offset
06 [1f30b2e5] (006/530) No match but offset
07 [6eb1bed1] (006/534) No match but offset
08 [7b81b69f] (006/535) No match but offset
09 [1b964679] (006/534) No match but offset
10 [279cd749] (004/531) No match but offset
11 [d08c8c18] (006/532) No match but offset
12 [fcdacc56] (006/530) No match but offset
13 [49adc440] (006/527) No match but offset
14 [1ca80c46] (006/520) No match but offset
Offsetted by -6:
01 [edfebe9e] (000/535) No match
02 [3c0fdecc] (000/535) No match
03 [96a86e0d] (000/535) No match
04 [b6e6ebf5] (000/536) No match
05 [e23b0a07] (000/534) No match
06 [c9092d91] (000/530) No match
07 [7bf82638] (000/534) No match
08 [559602f8] (000/535) No match
09 [b1b24818] (000/534) No match
10 [5df4d9cd] (006/531) No match but offset
11 [3cf0ee1e] (000/532) No match
12 [306388bf] (000/530) No match
13 [bcae2e41] (000/527) No match
14 [04c20df1] (000/520) No match
Offsetted by 6:
01 [98a89e42] (004/535) No match but offset
02 [21d4eef2] (004/535) No match but offset
03 [3919db9c] (004/535) No match but offset
04 [cc0c794f] (004/536) No match but offset
05 [6d23a717] (004/534) No match but offset
06 [6c2f1027] (004/530) No match but offset
07 [febbcfdf] (004/534) No match but offset
08 [d3841239] (004/535) No match but offset
09 [a5310b6e] (004/534) No match but offset
10 [42329586] (003/531) No match but offset
11 [9ceed125] (004/532) No match but offset
12 [c441aeaa] (004/530) No match but offset
13 [e65065eb] (004/527) No match but offset
14 [96373df1] (004/520) No match but offset

Track Peak [ CRC32 ] [W/O NULL] [ LOG ]
-- 100,0 [6D6D64B4] [57E743BD]
01 99,9 [61012401] [3CF44E51] CRC32
02 100,0 [F06E4479] [69C67E0B] CRC32
03 99,9 [D66267DC] [45F7924B] CRC32
04 99,9 [0F3A9E03] [D2C7474C] CRC32
05 100,0 [C633F2C8] [94F9402B] CRC32
06 100,0 [80274F81] [998383F5] CRC32
07 99,8 [50104277] [317942B6] CRC32
08 100,0 [6206F723] [13654AA0] CRC32
09 99,9 [C35546A7] [8AF4EFB4] CRC32
10 99,8 [C5C84314] [B8847F6D] CRC32
11 99,9 [CD98A93C] [98F2DD7C] CRC32
12 98,9 [5043F52E] [DBC20B2D] CRC32
13 100,0 [96120E93] [AB2EF306] CRC32
14 99,8 [2D6834CF] [6676F246] CRC32
[CUETools log; Date: 09.03.2012 3:28:14; Version: 2.0.9]
[CTDB TOCID: j50oDWWFZUcDbeE4Os7HncJrEZg-] found.
[ CTDBID ] Status
[7e929e83] (006/110) CD-Extra data track length 09:30:41, Accurately ripped
[7e8bfeef] (103/110) Accurately ripped
[f628cf7e] (001/110) No match
[AccurateRip ID: 0011cc20-0090f340-920c010a] found.
Track [ CRC ] Status
01 [3b6dd708] (112/155) Accurately ripped
02 [1a5b4040] (114/157) Accurately ripped
03 [ca096fea] (111/153) Accurately ripped
04 [c3930d78] (112/155) Accurately ripped
05 [340ec90e] (113/156) Accurately ripped
06 [24588228] (114/157) Accurately ripped
07 [5594a374] (114/157) Accurately ripped
08 [5c0895f3] (113/155) Accurately ripped
09 [cd54f372] (109/152) Accurately ripped
10 [8a5aec78] (104/144) Accurately ripped
Offsetted by -18:
01 [f9d0e5a0] (002/155) Accurately ripped
02 [de521e02] (002/157) Accurately ripped
03 [b1916c9b] (002/153) Accurately ripped
04 [5c8ddc46] (002/155) Accurately ripped
05 [95d869f4] (002/156) Accurately ripped
06 [fa590387] (002/157) Accurately ripped
07 [dd94d310] (002/157) Accurately ripped
08 [27c9b0c8] (002/155) Accurately ripped
09 [9b5f661f] (002/152) Accurately ripped
10 [dae5b2be] (002/144) Accurately ripped
Offsetted by 560:
01 [b251db21] (002/155) Accurately ripped
02 [c1d3f723] (002/157) Accurately ripped
03 [8c3637f1] (002/153) Accurately ripped
04 [5d78cf1d] (002/155) Accurately ripped
05 [3c3cbefe] (002/156) Accurately ripped
06 [2eae3abb] (002/157) Accurately ripped
07 [46d41fda] (002/157) Accurately ripped
08 [ccd4155f] (002/155) Accurately ripped
09 [2845798e] (002/152) Accurately ripped
10 [98abe159] (002/144) Accurately ripped
Offsetted by 646:
01 [177902cd] (026/155) Accurately ripped
02 [ac2e27eb] (026/157) Accurately ripped
03 [44bdeb7b] (025/153) Accurately ripped
04 [f35117d0] (026/155) Accurately ripped
05 [b2f460d2] (026/156) Accurately ripped
06 [eb16fb76] (026/157) Accurately ripped
07 [f4046c15] (026/157) Accurately ripped
08 [c050c690] (026/155) Accurately ripped
09 [64e3c629] (026/152) Accurately ripped
10 [0d8ed7c0] (025/144) Accurately ripped

Track Peak [ CRC32 ] [W/O NULL] [ LOG ]
-- 100,0 [2FF1EE08] [F2E75941]
01 97,5 [C4F6AF32] [64B832A7] CRC32
02 98,0 [9CED6AA6] [7089BD90] CRC32
03 98,6 [7E9D0AC2] [0D91EC52] CRC32
04 98,6 [8B276F92] [9085AF34] CRC32
05 98,7 [CDD557B7] [E0EE0212] CRC32
06 96,9 [5EC15922] [CB732649] CRC32
07 98,9 [D95B04E4] [E1B73492] CRC32
08 99,9 [D018B1FD] [6FEA244F] CRC32
09 100,0 [C80CD0F9] [3E7C8C24] CRC32
10 99,5 [1E4ADC44] [A2B6653C] CRC32

Этот торрент недоступен для скачивания без регистрации, однако доступен по публичной magnet-ссылке (источники с публичных трекеров). Перед использованием ссылки прочтите, пожалуйста Пользовательское соглашение, а также как можно дольше оставайтесь на раздаче! Для того, чтобы скачать сам торрент-файл (который видит больше источников), а также для того, чтобы поблагодарить релизера, вам необходимо зарегистрироваться. Если регистрироваться лень - вы можете также попробовать скачать релиз по нашим партнерским ссылкам ниже. Кроме того, зарегистрированным пользователям не показывается всплывающая реклама при скачивании.

[underverse.su].t37640.torrent
Трекер: Зарегистрирован   [ 27.03.2014 13:07 ]  

Статус: проверено (by Бишеп at 27.03.2014 15:05)
Поблагодарили: пока никто не поблагодарил...
Тип торрента: публичный - доступные источники с открытых трекеров: 
Размер: 1,05 GB (занимает 0,24 DVDR, для записи нужно 1 болванка DVDR/RW)
 
 
Похожие темы
Форум Тема Автор Торрент Отв. Посл. сооб.
Музыкальные DVD (Electronic) Jean Michel Jare - Aero (2004) [DVD-Audio, 5.1 DTS, 5.1 Dolby Digital (2.0-совместимый даунмикс)] 8ad_R060d
15 | 1

0 | 2934

31

19.03.2014 14:24

Зарубежная Pop Музыка (Electronic, Pop) Marian Hill - ACT ONE (The Complete Collection) (2017) [MP3, 320 kbps CBR] Darkferse
7 | 2

1 | 1232

6

31.05.2017 13:55

Зарубежная Pop Музыка (Electronic, House, Dance, Pop) Madonna - Bitch I'm Madonna (The Remixes) (2015) [MP3, 320 kbps] 90ytr90
2 | 0

0 | 726

2

08.11.2016 07:41

Зарубежная Pop Музыка (Electronic, Synth-pop) a-ha - Cast In Steel [Vinyl Rip] (2015) [MP3, 320 kbps] 90ytr90
7 | 0

0 | 787

2

06.11.2016 12:26

Зарубежная Pop Музыка (Electronic, Pop, Dance) The Knocks - 55 (2016) [MP3, 320 kbps] 90ytr90
9 | 0

0 | 665

3

06.11.2016 10:41

Зарубежная Pop Музыка (Electronic Rock, Pop) Porcelain Black - Mannequin Factory (2015) [MP3, 320 kbps] 90ytr90
1 | 0

0 | 1236

11

11.03.2015 20:43

Зарубежная Pop Музыка (Electronic, Indie Pop) Sia - The Spotify Sessions [EP] (2017) [MP3, 320 kbps CBR] 90ytr90
34 | 3

0 | 563

6

08.04.2018 07:08

Зарубежная Pop Музыка (Electronic, House, Techno) Moby - Go-the very best of Moby (Japan) (2006) [MP3, 320 kbps CBR] 90ytr90
34 | 2

0 | 608

9

08.04.2018 10:44

Зарубежная Pop Музыка (Electronic, Dance, Alternative, Pop) Tracey Thorn - Record (2018) [MP3, 320 kbps CBR] 90ytr90
5 | 0

0 | 463

5

08.04.2018 13:05

Зарубежная Pop Музыка (Electronic, Synthpop) a-ha - MTV Unplugged: Summer Solstice (2017) [MP3, 320 kbps CBR] 90ytr90
18 | 6

0 | 675

8

08.04.2018 14:22


Яндекс.Метрика powered by Sphinx


В Н И М А Н И Е
Сайт не распространяет и не хранит электронные версии произведений, а лишь бесплатно и без коммерческой выгоды (не требуя взамен платы,
SMS и т.д.) предоставляет доступ к создаваемому пользователями каталогу ссылок на торрент-файлы, которые содержат только списки хеш-сумм.
Убедительная просьба с жалобами обращаться напрямую к пользователю, разместившему торрент файл.

Вверх