Loading...
Error

Майк и Молли / Mike and Molly (Марк Робертс) / 3 сезон / Серии 1-23 (23) [2012-2013 г., комедия, HDTVRip 720p]

Статистика раздачи
Размер:  17,28 GB   |    Зарегистрирован:  4 года 6 месяцев   |    Скачан:  2 раза

Полного источника не было: 4 месяца 4 дня

Сидов:  0  |  0 KB/s  ]   Личеров:  0  |  0 KB/s  ]

* - сиды/пиры с внешних источников

   
 
Автор Сообщение

Jimmy Пол:Муж

23-Апр-2014 16:23

Майк и Молли / Mike and Molly (2012-2013) HDTVRip [720p] [Сезон 3, Серии 01-23 из 23] Кураж-Бамбей

Год выпуска: 2012-2013
Жанр: Комедия

Перевод: Одноголосый закадровый, профессиональный - Кураж-Бамбей
Субтитры: Нет

Режиссер: Марк Робертс
Актеры: Билли Гарделл (Майк Биггс), Рено Уилсон (Карл Макмиллан), Мелисса Маккарти (Молли Флинн), Кэти Миксон (Виктория Флинн), Свузи Кёрц (Джойс), Нямби Нямби (Самюэль)

Описание фильма:
Офицер Майк Биггс – полицейский с добрым сердцем, который искренне желает сбросить вес. Напарник Майка, офицер Карл Макмиллан, худой и болтливый всезнайка, который, несмотря на поддразнивания, поддерживает Майка на его пути к стройности и любви. Во время одного из собраний Майк встретил Молли Флинн, милую учительницу четвертого класса, которая относится к своим пышным формам со здоровым юмором. Сделать правильный выбор для Молли не всегда просто, потому что она живет со своей сексуальной старшей сестрой Викторией и матерью Джойс. Обе они выставляют напоказ свой здоровый аппетит и стройные фигуры. Майку также приходиться сталкиваться с искушением в закусочной, которую он часто посещает с Карлом. Там они познакомились с сенегальским официантом Самюэлем, для которого диета – незнакомая концепция. Для Майка и Молли, благодаря их взаимной любви к пирогам и желанию сопротивляться им, знакомство друг с другом может быть ценнее «веса».

Сэмпл - скачать

Продолжительность: ~00:20:00 серия
Качество видео: HDTVRip 720p

Видеокодек: x264
Битрейт видео: ~4700 - 5500 Kbps
Размер кадра: 1280 x 720 (16:9)
Аудио Rus: AC-3, 48 kHz, 2 ch, 192 kbps - Кураж-Бамбей
Аудио Eng: AC-3, 48 kHz, 6 ch, 384 kbps - Оригинал
Complete name : G:\Seed\Mike and Molly - Season 3 HDTV 720p\Mike.and.Molly.S03E01.HDTVRip.720p.mkv
Format : Matroska
Format version : Version 2
File size : 837 MiB
Duration : 20mn 42s
Overall bit rate : 5 650 Kbps
Encoded date : UTC 2012-10-03 07:18:41
Writing application : mkvmerge v5.2.1 ('A Far Off Place') built on Jan 7 2012 21:56:27
Writing library : libebml v1.2.3 + libmatroska v1.3.0

Video
ID : 1
Format : AVC
Format/Info : Advanced Video Codec
Format profile : [url=mailto:High@L4.1]High@L4.1[/url]
Format settings, CABAC : Yes
Format settings, ReFrames : 8 frames
Codec ID : V_MPEG4/ISO/AVC
Duration : 20mn 42s
Bit rate : 4 961 Kbps
Width : 1 280 pixels
Height : 720 pixels
Display aspect ratio : 16:9
Frame rate mode : Constant
Frame rate : 23.976 fps
Color space : YUV
Chroma subsampling : 4:2:0
Bit depth : 8 bits
Scan type : Progressive
Bits/(Pixel*Frame) : 0.225
Stream size : 735 MiB (88%)
Writing library : x264 core 125 r2208 d9d2288
Encoding settings : cabac=1 / ref=8 / deblock=1:-2:-2 / analyse=0x3:0x113 / me=umh / subme=9 / psy=1 / psy_rd=1.00:0.00 / mixed_ref=1 / me_range=24 / chroma_me=1 / trellis=1 / 8x8dct=1 / cqm=0 / deadzone=21,11 / fast_pskip=0 / chroma_qp_offset=-2 / threads=12 / lookahead_threads=2 / sliced_threads=0 / nr=0 / decimate=1 / interlaced=0 / bluray_compat=0 / constrained_intra=0 / bframes=5 / b_pyramid=2 / b_adapt=1 / b_bias=0 / direct=1 / weightb=1 / open_gop=0 / weightp=2 / keyint=250 / keyint_min=23 / scenecut=40 / intra_refresh=0 / rc_lookahead=40 / rc=crf / mbtree=1 / crf=18.0 / qcomp=0.60 / qpmin=0 / qpmax=69 / qpstep=4 / ip_ratio=1.40 / aq=1:1.00
Language : English
Default : Yes
Forced : No

Audio #1
ID : 2
Format : AC-3
Format/Info : Audio Coding 3
Mode extension : CM (complete main)
Format settings, Endianness : Big
Codec ID : A_AC3
Duration : 20mn 42s
Bit rate mode : Constant
Bit rate : 192 Kbps
Channel count : 2 channels
Channel positions : Front: L R
Sampling rate : 48.0 KHz
Bit depth : 16 bits
Compression mode : Lossy
Stream size : 28.4 MiB (3%)
Title : Kuraj-Bambey
Language : Russian
Default : Yes
Forced : No

Audio #2
ID : 3
Format : AC-3
Format/Info : Audio Coding 3
Mode extension : CM (complete main)
Format settings, Endianness : Big
Codec ID : A_AC3
Duration : 20mn 42s
Bit rate mode : Constant
Bit rate : 384 Kbps
Channel count : 2 channels
Channel positions : Front: L R
Sampling rate : 48.0 KHz
Bit depth : 16 bits
Compression mode : Lossy
Stream size : 56.9 MiB (7%)
Title : Original
Language : English
Default : No
Forced : No
01. - Медовый месяц закончился / The Honeymoon is Over
02. - Винс принимает ванну / Vince Takes a Bath
03. - Майк обожает торт / Mike Likes Cake
04. - Молли посередине / Molly in the Middle
05. - Босс Майка / Mike's Boss
06. - Дворовая распродажа / Yard Sale
07. - Благодарение отменяется / Thanksgiving Is Cancelled
08. - Майку нравятся трусы / Mike Likes Briefs
09. - Майк сдает тест / Mike Takes a Test
10. - Рождественское караоке / Karaoke Christmas
11. - Рыба на завтрак / Fish for Breakfast
12. - День рождения / Молли Molly's Birthday
13. - Карл заполучает соседа по комнате / Carl Gets a Roommate
14. - Принцесса и тролль / The Princess and the Troll
15. - Поддразнивание Майка / Mike the Tease
16. - Новая обувь / Молли Molly's New Shoes
17. - День Святого Патрика / St. Patrick's Day
18. - Весенние каникулы / Spring Break
19. - Планирование вечеринки / Party Planners
20. - Майк не умеет читать / Mike Can't Read
21. - Молли уехала из города / Molly's Out of Town
22. - Школьный сольный концерт / School Recital
23. - Город ветров / Windy City
Скриншоты:
pic pic pic pic pic pic
Для увеличения картинки щелкните мышкой по превью

Этот торрент недоступен для скачивания без регистрации, однако доступен по публичной magnet-ссылке (источники с публичных трекеров). Перед использованием ссылки прочтите, пожалуйста Пользовательское соглашение, а также как можно дольше оставайтесь на раздаче! Для того, чтобы скачать сам торрент-файл (который видит больше источников), а также для того, чтобы поблагодарить релизера, вам необходимо зарегистрироваться. Если регистрироваться лень - вы можете также попробовать скачать релиз по нашим партнерским ссылкам ниже. Кроме того, зарегистрированным пользователям не показывается всплывающая реклама при скачивании.

[underverse.su].t39080.torrent
Трекер: Зарегистрирован   [ 23.04.2014 16:23 ]  

Статус: проверено (by Jimmy at 23.04.2014 16:23)
Поблагодарили: пока никто не поблагодарил...
Тип торрента: публичный - доступные источники с открытых трекеров: 
Размер: 17,28 GB (занимает 3,95 DVDR, для записи нужно 4 болванки DVDR/RW)
 
 

Яндекс.Метрика powered by Sphinx


В Н И М А Н И Е
Сайт не распространяет и не хранит электронные версии произведений, а лишь бесплатно и без коммерческой выгоды (не требуя взамен платы,
SMS и т.д.) предоставляет доступ к создаваемому пользователями каталогу ссылок на торрент-файлы, которые содержат только списки хеш-сумм.
Убедительная просьба с жалобами обращаться напрямую к пользователю, разместившему торрент файл.

Вверх