Loading...
Error

Ходячие Мертвецы / The Walking Dead / Сезон: 4 / Серии: 1-16 из 16 (Фрэнк Дарабонт, Эрнест Р. Дикерсон, Гай Ферленд) [2013, ужасы, триллер, фантастика, WEB-DL 1080p] MVO (Fox) + Original

Статистика раздачи
Размер:  26,43 GB   |    Зарегистрирован:  4 года 9 месяцев   |    Скачан:  20 раз

Полного источника не было: 1 месяц 1 день

Сидов:  0  |  0 KB/s  ]   Личеров:  0  |  0 KB/s  ]

* - сиды/пиры с внешних источников

   
 
Автор Сообщение

uzi2009 Пол:Муж

28-Апр-2014 23:40

Ходячие Мертвецы / The Walking Dead

Год выпуска: 2013
Страна: США
Жанр: ужасы, триллер, фантастика
Продолжительность: ~ 00:43:05
Перевод: Профессиональный (многоголосый закадровый) Fox
Режиссёр: Фрэнк Дарабонт, Эрнест Р. Дикерсон, Гай Ферленд
В ролях: Эндрю Линкольн, Сара Уэйн Кэллис, Лори Холден, Стивен Юн, Чендлер Риггз, Джон Бернтал, Джеффри ДеМанн, Норман Ридус, Айрон Э. Синглтон, Мелисса Сюзанн МакБрайд, Лорен Коэн, Эмили Кинни, Скотт Уилсон, Джейн МакНейлл, Джеймс Аллен МакКьюн, Мэдисон Линтц, Эмма Белл, Джерил Прескотт, Эндрю С. МакМиллан, Эндрю Ротенберг, Майкл Рукер
Описание:
Вирус превратил жителей Земли в зомби. Небольшая группа выживших изо дня в день борется за существование в новом, враждебном мире. Под предводительством бывшего полицейского Рика они ищут безопасное для жизни место. Но не стоит заблуждаться — зомби отнюдь не самое страшное, что ждет наших героев. Основная опасность — другие оставшиеся в живых...

Доп. информация:
Рик и группа всё ближе к идеальной жизни, которая возможна в тюрьме. Смогут ли они удержать человечность в лице нового зла?


Список серий
1 Серия. 30 Days Without an Accident/30 дней без происшествий
2 Серия. Infected/Зараженные
3 Серия. Isolation/Изоляция
4 Серия. Indifference/Безразличие
5 Серия. Interment/Погребение
6 Серия. Rise/Подъем
7 Серия. Dead Weight/Мертвый вес
8 Серия. Too Far Gone/Всё слишком далеко зашло
9 Серия. After/После
10 Серия. Inmates/Обитатели
11 Серия. Claimed/Требование
12 Серия. Still/Безмолвные
13 Серия. Alone/Одиночка
14 Серия. The Grove/Роща
15 Серия. Us/Мы
16 Серия. A/А


Качество: WEB-DL 1080p
Контейнер: MKV

Видео: AVC, 1916x1076 (16:9), 23.976 fps, ~5200 kbps avg, 0.105 bit/pixel
Аудио: Russian: AC3, 48 kHz, 2 ch, 192 Kbps
Аудио 2: English: AC3, 48 kHz, 6 ch, 384 kbps
Субтитры: отсутствуют

MediaInfo
Общее
Уникальный идентификатор : 173944326310262997793124524147795961482 (0x82DC756B60F71321A1644C1C3B3A268A)
Полное имя : L:\00000000000\раздачи\Walking Dead s4\The.Walking.Dead.s04e01.WEBDL.1080p.*другой трекер*.mkv
Формат : Matroska
Версия формата : Version 2
Размер файла : 1,77 Гбайт
Продолжительность : 43 м.
Общий поток : 5876 Кбит/сек
Дата кодирования : UTC 2013-10-14 18:57:07
Программа кодирования : mkvmerge v2.9.9 ('Tutu') built on Nov 25 2009 21:13:32
Библиотека кодирования : libebml v0.7.9 + libmatroska v0.8.1

Видео
Идентификатор : 1
Формат : AVC
Формат/Информация : Advanced Video Codec
Профиль формата : High@L4.0
Параметр CABAC формата : Да
Параметр ReFrames формата : 4 кадра
Идентификатор кодека : V_MPEG4/ISO/AVC
Продолжительность : 43 м.
Битрейт : 5184 Кбит/сек
Ширина : 1916 пикселей
Высота : 1076 пикселей
Соотношение сторон : 16:9
Режим частоты кадров : Постоянный
Частота кадров : 23,976 кадра/сек
Цветовое пространство : YUV
Субдискретизация насыщенности : 4:2:0
Битовая глубина : 8 бит
Тип развёртки : Прогрессивная
Бит/(Пиксели*Кадры) : 0.105
Размер потока : 1,56 Гбайт (88%)
Язык : English
Default : Нет
Forced : Нет
Основные цвета : BT.709
Характеристики трансфера : BT.709
Коэффициенты матрицы : BT.709

Аудио #1
Идентификатор : 2
Формат : AC-3
Формат/Информация : Audio Coding 3
Расширение режима : CM (complete main)
Параметр Endianness формата : Big
Идентификатор кодека : A_AC3
Продолжительность : 43 м.
Вид битрейта : Постоянный
Битрейт : 192 Кбит/сек
Каналы : 2 канала
Расположение каналов : Front: L R
Частота : 48,0 КГц
Битовая глубина : 16 бит
Метод сжатия : С потерями
Размер потока : 59,1 Мбайт (3%)
Язык : Russian
Default : Да
Forced : Да

Аудио #2
Идентификатор : 3
Формат : AC-3
Формат/Информация : Audio Coding 3
Расширение режима : CM (complete main)
Параметр Endianness формата : Big
Идентификатор кодека : A_AC3
Продолжительность : 43 м.
Вид битрейта : Постоянный
Битрейт : 384 Кбит/сек
Каналы : 6 каналов
Расположение каналов : Front: L C R, Side: L R, LFE
Частота : 48,0 КГц
Битовая глубина : 16 бит
Метод сжатия : С потерями
Размер потока : 118 Мбайт (7%)
Язык : English
Default : Нет
Forced : Нет
Скриншоты
pic pic pic pic pic

Этот торрент недоступен для скачивания без регистрации, однако доступен по публичной magnet-ссылке (источники с публичных трекеров). Перед использованием ссылки прочтите, пожалуйста Пользовательское соглашение, а также как можно дольше оставайтесь на раздаче! Для того, чтобы скачать сам торрент-файл (который видит больше источников), а также для того, чтобы поблагодарить релизера, вам необходимо зарегистрироваться. Если регистрироваться лень - вы можете также попробовать скачать релиз по нашим партнерским ссылкам ниже. Кроме того, зарегистрированным пользователям не показывается всплывающая реклама при скачивании.

[underverse.su].t39407.torrent
Трекер: Зарегистрирован   [ 28.04.2014 23:40 ]  

Статус: проверено (by Паукан at 29.04.2014 06:30)
Поблагодарили: 1 человек
Тип торрента: публичный - доступные источники с открытых трекеров: 
Размер: 26,43 GB (занимает 6,04 DVDR, для записи нужно 7 болванок DVDR/RW)
 
 
Похожие темы
Форум Тема Автор Торрент Отв. Посл. сооб.
T Зарубежное кино [DVDRip, Low-Res HDRip, и т.д.] Ходячие мертвецы на диком Западе / Walking dead in the West / Cowboy Zombies (Пол Уинтерс) [2016 г., ужасы, DVDRip] MVO makkol
1 | 0

0 | 772

5

21.10.2016 22:19

Зарубежные сериалы Ходячие мертвецы / The Walking Dead / Сезон: 1, серии: 1-6 (Фрэнк Дарабонт, Эрнест Р. Дикерсон, Гай Ферленд) [2010 г., ужасы, драма, BDRip] MVO maddd
5 | 1

6 | 2717

39

11.01.2013 17:35

Зарубежные сериалы Ходячие мертвецы / The Walking Dead / Сезон: 3, серии: 1-16 (Эрнест Р. Дикерсон, Билл Джирхарт, Гай Ферленд) [2012-13 г., ужасы, триллер, драма, WEBDLRip] Fox garry
1 | 0

21 | 11406

23

03.10.2013 14:10

Зарубежные сериалы Ходячие мертвецы / The Walking Dead / Сезон 1-3 / Серии 1-35 (35) (Эрнест Р. Дикерсон, Гай Ферленд, Гвинет Хордер-Пэйтон) [2010-2013 г., Мистический триллер, ужасы, зомби, WEBDLRip-AVC] MVO Чертёнок
2 | 0

11 | 2051

34

08.10.2013 18:52

Зарубежные сериалы Ходячие мертвецы / The Walking Dead / Сезон 5 (1-16 серии из 16) (Грег Никотеро, Эрнест Р. Дикерсон, Гай Ферленд) [2014 г., ужасы, драма, WEB-DLRip] MVO older
3 | 0

0 | 2378

12

02.09.2015 15:51

Зарубежные сериалы Ходячие мертвецы / The Walking Dead / Сезон 6 (1-16 серии из 16) (Грег Никотеро, Эрнест Р. Дикерсон, Гай Ферленд) [2015 г., ужасы, драма, WEB-DLRip] MVO (FoX) + Original older
6 | 0

8 | 4824

11

05.05.2016 23:19

Зарубежные сериалы [BD / Remux / BDRip / WEB-DL / HDTV 1080/720р] Ходячие мертвецы / The Walking Dead / Сезон 3 / Серии 1-16 (16) ( Эрнест Р. Дикерсон, Гай Ферленд, Гвинет Хордер-Пэйтон) [2012 г., Ужасы, триллер, драма, WEBDLRip 720p] MVO + Original Чертёнок
1 | 0

2 | 2644

4

08.10.2013 17:42

T Зарубежные сериалы [BD / Remux / BDRip / WEB-DL / HDTV 1080/720р] Ходячие мертвецы / The Walking Dead (Сезон 8, Серии 1-8 из 16) (Эрнест Р. Дикерсон, Гай Ферленд) [2017, Ужасы, триллер, фантастика, WEB-DLRip-HEVC] [1080p] [LostFilm , FOX , BaibaKo , NewStudio ,... Nikolai.Baranov
0 | 2

0 | 2091

2

19.11.2017 11:07

T Зарубежные сериалы [BD / Remux / BDRip / WEB-DL / HDTV 1080/720р] Ходячие мертвецы / The Walking Dead (Сезон 9, Серия 1-9 из 16 )(Эрнест Р. Дикерсон) [2018 - 2019, Мистика, триллер, ужасы, зомби, постапокалипсис, WEB-DLRip 720p][... Nikolai.Baranov
1 | 0

0 | 546

0

04.11.2018 10:59

Комиксы Ходячие мертвецы / The Walking Dead [001-140] [2003-2015 г., зомби-апокалипсис, хоррор, драма, CBZ, FB2] RUS Паукан
1 | 0

0 | 1273

8

05.05.2015 14:25


Яндекс.Метрика powered by Sphinx


В Н И М А Н И Е
Сайт не распространяет и не хранит электронные версии произведений, а лишь бесплатно и без коммерческой выгоды (не требуя взамен платы,
SMS и т.д.) предоставляет доступ к создаваемому пользователями каталогу ссылок на торрент-файлы, которые содержат только списки хеш-сумм.
Убедительная просьба с жалобами обращаться напрямую к пользователю, разместившему торрент файл.

Вверх