Loading...
Error

(Electronic, Trip-hop, Downtempo) Morcheeba - Head Up High (2013) [FLAC (Tracks+.CUE), Lossless]

Статистика раздачи
Размер:  306 MB   |    Зарегистрирован:  4 года 8 месяцев   |    Скачан:  15 раз

Полного источника не было: 27 дней

Сидов:  0  |  0 KB/s  ]   Личеров:  0  |  0 KB/s  ]

* - сиды/пиры с внешних источников

   
 
Автор Сообщение

8ad_R060d Пол:Муж

02-Май-2014 18:26

Morcheeba - Head Up High

Жанр: Electronic, Trip-hop, Downtempo
Год выпуска: 2013
Производитель диска: [PIAS] Recordings - PIASR355CDX
Аудиокодек: FLAC
Тип рипа: Tracks+.CUE
Битрейт аудио: Lossless
Продолжительность: 00:48:19
Треклист:

01. Gimme Your Love (4:51)
02. Face of Danger (3:57)
03. Call It Love (3:59)
04. Under the Ice (3:41)
05. I’ll Fall Apart (2:07)
06. Make Believer (3:41)
07. Release Me Now (4:09)
08. To Be (4:39)
09. Hypnotized (4:03)
10. To the Grave (5:13)
11. Do You Good (3:34)
12. Finally Found You (4:25)
Exact Audio Copy V1.0 beta 3 from 29. August 2011

EAC extraction logfile from 8. October 2013, 2:05

Morcheeba / Head Up High

Used drive : SlimtypeDVD A DS8A5SH Adapter: 0 ID: 1

Read mode : Secure
Utilize accurate stream : Yes
Defeat audio cache : Yes
Make use of C2 pointers : No

Read offset correction : 6
Overread into Lead-In and Lead-Out : No
Fill up missing offset samples with silence : Yes
Delete leading and trailing silent blocks : No
Null samples used in CRC calculations : Yes
Used interface : Native Win32 interface for Win NT & 2000
Gap handling : Appended to previous track

Used output format : User Defined Encoder
Selected bitrate : 1024 kBit/s
Quality : High
Add ID3 tag : No
Command line compressor : C:\Program Files (x86)\Exact Audio Copy\Flac\flac.exe

TOC of the extracted CD

Track | Start | Length | Start sector | End sector
---------------------------------------------------------
1 | 0:00.00 | 4:50.63 | 0 | 21812
2 | 4:50.63 | 3:56.43 | 21813 | 39555
3 | 8:47.31 | 3:59.34 | 39556 | 57514
4 | 12:46.65 | 3:40.68 | 57515 | 74082
5 | 16:27.58 | 2:06.61 | 74083 | 83593
6 | 18:34.44 | 3:41.36 | 83594 | 100204
7 | 22:16.05 | 4:09.35 | 100205 | 118914
8 | 26:25.40 | 4:39.11 | 118915 | 139850
9 | 31:04.51 | 4:03.23 | 139851 | 158098
10 | 35:07.74 | 5:13.07 | 158099 | 181580
11 | 40:21.06 | 3:33.40 | 181581 | 197595
12 | 43:54.46 | 4:25.29 | 197596 | 217499

Track 1

Filename C:\EAC Rips\Head Up High\01 Gimme Your Love.wav

Pre-gap length 0:00:02.00

Peak level 98.8 %
Extraction speed 2.3 X
Track quality 99.9 %
Test CRC 8C9F4C76
Copy CRC 8C9F4C76
Track not present in AccurateRip database
Copy OK

Track 2

Filename C:\EAC Rips\Head Up High\02 Face Of Danger.wav

Peak level 99.9 %
Extraction speed 2.9 X
Track quality 100.0 %
Test CRC 2D914233
Copy CRC 2D914233
Track not present in AccurateRip database
Copy OK

Track 3

Filename C:\EAC Rips\Head Up High\03 Call It Love.wav

Peak level 98.8 %
Extraction speed 3.1 X
Track quality 100.0 %
Test CRC 9FDDDE84
Copy CRC 9FDDDE84
Track not present in AccurateRip database
Copy OK

Track 4

Filename C:\EAC Rips\Head Up High\04 Under The Ice.wav

Peak level 98.8 %
Extraction speed 3.3 X
Track quality 100.0 %
Test CRC C18C0648
Copy CRC C18C0648
Track not present in AccurateRip database
Copy OK

Track 5

Filename C:\EAC Rips\Head Up High\05 I'll Fall Apart.wav

Peak level 98.8 %
Extraction speed 2.3 X
Track quality 99.9 %
Test CRC FD46747C
Copy CRC FD46747C
Track not present in AccurateRip database
Copy OK

Track 6

Filename C:\EAC Rips\Head Up High\06 Make Believer.wav

Peak level 98.8 %
Extraction speed 3.6 X
Track quality 100.0 %
Test CRC 1B6A9E40
Copy CRC 1B6A9E40
Track not present in AccurateRip database
Copy OK

Track 7

Filename C:\EAC Rips\Head Up High\07 Release Me Now.wav

Peak level 98.8 %
Extraction speed 3.9 X
Track quality 100.0 %
Test CRC 6275A140
Copy CRC 6275A140
Track not present in AccurateRip database
Copy OK

Track 8

Filename C:\EAC Rips\Head Up High\08 To Be.wav

Peak level 98.8 %
Extraction speed 4.2 X
Track quality 100.0 %
Test CRC 0040C1AD
Copy CRC 0040C1AD
Track not present in AccurateRip database
Copy OK

Track 9

Filename C:\EAC Rips\Head Up High\09 Hypnotized.wav

Peak level 98.8 %
Extraction speed 4.3 X
Track quality 100.0 %
Test CRC 20FF8EC9
Copy CRC 20FF8EC9
Track not present in AccurateRip database
Copy OK

Track 10

Filename C:\EAC Rips\Head Up High\10 To The Grace.wav

Peak level 98.8 %
Extraction speed 4.6 X
Track quality 100.0 %
Test CRC E75EF18A
Copy CRC E75EF18A
Track not present in AccurateRip database
Copy OK

Track 11

Filename C:\EAC Rips\Head Up High\11 Do You Good.wav

Peak level 100.0 %
Extraction speed 4.6 X
Track quality 100.0 %
Test CRC 0E2AFBCC
Copy CRC 0E2AFBCC
Track not present in AccurateRip database
Copy OK

Track 12

Filename C:\EAC Rips\Head Up High\12 Finally Found You.wav

Peak level 98.8 %
Extraction speed 4.9 X
Track quality 100.0 %
Test CRC C6DD8446
Copy CRC C6DD8446
Track not present in AccurateRip database
Copy OK

None of the tracks are present in the AccurateRip database

No errors occurred

End of status report

==== Log checksum 5866A16BDA2B7CF28BE91BC0D7D23A7BE39891638362AB935674D7FC4CA7E6E5 ====
REM GENRE Rock
REM DATE 2013
REM DISCID B80B540C
REM COMMENT "ExactAudioCopy v1.0b3"
PERFORMER "Morcheeba"
TITLE "Head Up High"
FILE "01 Gimme Your Love.wav" WAVE
TRACK 01 AUDIO
TITLE "Gimme Your Love"
PERFORMER "Morcheeba"
ISRC BEP011300141
INDEX 01 00:00:00
FILE "02 Face Of Danger.wav" WAVE
TRACK 02 AUDIO
TITLE "Face Of Danger"
PERFORMER "Morcheeba"
ISRC BEP011300118
INDEX 01 00:00:00
FILE "03 Call It Love.wav" WAVE
TRACK 03 AUDIO
TITLE "Call It Love"
PERFORMER "Morcheeba"
ISRC BEP011300119
INDEX 01 00:00:00
FILE "04 Under The Ice.wav" WAVE
TRACK 04 AUDIO
TITLE "Under The Ice"
PERFORMER "Morcheeba"
ISRC BEP011300120
INDEX 01 00:00:00
FILE "05 I'll Fall Apart.wav" WAVE
TRACK 05 AUDIO
TITLE "I'll Fall Apart"
PERFORMER "Morcheeba"
ISRC BEP011300121
INDEX 01 00:00:00
FILE "06 Make Believer.wav" WAVE
TRACK 06 AUDIO
TITLE "Make Believer"
PERFORMER "Morcheeba"
ISRC BEP011300122
INDEX 01 00:00:00
FILE "07 Release Me Now.wav" WAVE
TRACK 07 AUDIO
TITLE "Release Me Now"
PERFORMER "Morcheeba"
ISRC BEP011300142
INDEX 01 00:00:00
FILE "08 To Be.wav" WAVE
TRACK 08 AUDIO
TITLE "To Be"
PERFORMER "Morcheeba"
ISRC BEP011300123
INDEX 01 00:00:00
FILE "09 Hypnotized.wav" WAVE
TRACK 09 AUDIO
TITLE "Hypnotized"
PERFORMER "Morcheeba"
ISRC BEP011300117
INDEX 01 00:00:00
FILE "10 To The Grace.wav" WAVE
TRACK 10 AUDIO
TITLE "To The Grace"
PERFORMER "Morcheeba"
ISRC BEP011300124
INDEX 01 00:00:00
FILE "11 Do You Good.wav" WAVE
TRACK 11 AUDIO
TITLE "Do You Good"
PERFORMER "Morcheeba"
ISRC BEP011300140
INDEX 01 00:00:00
FILE "12 Finally Found You.wav" WAVE
TRACK 12 AUDIO
TITLE "Finally Found You"
PERFORMER "Morcheeba"
ISRC BEP011300125
INDEX 01 00:00:00
-----------------------

DON'T MODIFY THIS FILE

-----------------------

PERFORMER: auCDtect Task Manager, ver. 1.5.1RC6 build 1.5.1.7
Copyright (c) 2008-2010 y-soft. All rights reserved
http://y-soft.org

ANALYZER: auCDtect: CD records authenticity detector, version 0.8.2
Copyright (c) 2004 Oleg Berngardt. All rights reserved.
Copyright (c) 2004 Alexander Djourik. All rights reserved.

FILE: 03 Call It Love.flac
Size: 26183582 Hash: 7F0E254B52D97CE2B4C07B1E1949924B Accuracy: -m0
Conclusion: CDDA 100%
Signature: F4C48C9A35BE8873F09E2D6144FA272AB3C2F196
FILE: 02 Face Of Danger.flac
Size: 28152483 Hash: 3E9DCD068CA87FD1BA3CA3FAF4986A71 Accuracy: -m0
Conclusion: CDDA 100%
Signature: 0AF866DFA2922CF86D95B828934671131D6DBA50
FILE: 01 Gimme Your Love.flac
Size: 32862116 Hash: AFB158D9D835C5D1A431866B6ECD9A21 Accuracy: -m0
Conclusion: CDDA 100%
Signature: D0083A9C052FA8D79163294FD00B154DDAF8EC9C
FILE: 12 Finally Found You.flac
Size: 27234157 Hash: 7DA2EC8BECEF3177786B6AFDF5F0D937 Accuracy: -m0
Conclusion: CDDA 100%
Signature: E304542C4ABA084E340922EACF8FC9B3F2C2E980
FILE: 11 Do You Good.flac
Size: 23729088 Hash: 4958CF1A3056DF49C93B162630F21E44 Accuracy: -m0
Conclusion: CDDA 100%
Signature: 5467813901D362210CEA4F5DDF25CE538A266B3B
FILE: 10 To The Grace.flac
Size: 34731097 Hash: 346913C9DC1C2512CC641D48A95B5C1F Accuracy: -m0
Conclusion: CDDA 100%
Signature: CF96F1673E6B12698E13F3A42C884F32391D0CFD
FILE: 09 Hypnotized.flac
Size: 27792593 Hash: 7460B105F61375981DCF8A6F60706FAF Accuracy: -m0
Conclusion: CDDA 100%
Signature: 8A2B70FEC3C37D271520F13324B5A49CF642D105
FILE: 08 To Be.flac
Size: 30969714 Hash: 1E07C7EB11E4DC8CFCC33CF33D47B04B Accuracy: -m0
Conclusion: CDDA 100%
Signature: BD6A75E73CF58E1907BD43D29B39D953A527D8CA
FILE: 07 Release Me Now.flac
Size: 28652226 Hash: 7300AA8CFD9D16FE3FBDA5E6836D30F1 Accuracy: -m0
Conclusion: CDDA 100%
Signature: 82369B5C2DEFEDDDE9E5436FD04E2EFE1B745B6F
FILE: 06 Make Believer.flac
Size: 23565891 Hash: 150BD01681324BED5C236301DDB5A4A5 Accuracy: -m0
Conclusion: CDDA 99%
Signature: FE1F347ACA6E19612E8D292F29C5696A1E87E9C5
FILE: 05 I'll Fall Apart.flac
Size: 12263240 Hash: F6B9BE4078C3AE478C0F93B29639DCAB Accuracy: -m0
Conclusion: CDDA 100%
Signature: D4E318DB7811D30B76D2DD9DCA3D9BD4093B0710
FILE: 04 Under The Ice.flac
Size: 24545342 Hash: B3AC52AA7DDA610E158F5D9A96A0B20B Accuracy: -m0
Conclusion: CDDA 100%
Signature: 2ABE8432B9B4AA3306EA019CFB50DC3F1A5BDD8D

Этот торрент недоступен для скачивания без регистрации, однако доступен по публичной magnet-ссылке (источники с публичных трекеров). Перед использованием ссылки прочтите, пожалуйста Пользовательское соглашение, а также как можно дольше оставайтесь на раздаче! Для того, чтобы скачать сам торрент-файл (который видит больше источников), а также для того, чтобы поблагодарить релизера, вам необходимо зарегистрироваться. Если регистрироваться лень - вы можете также попробовать скачать релиз по нашим партнерским ссылкам ниже. Кроме того, зарегистрированным пользователям не показывается всплывающая реклама при скачивании.

[underverse.su].t39610.torrent
Трекер: Зарегистрирован   [ 02.05.2014 18:26 ]  

Статус: проверено (by Бишеп at 02.05.2014 18:53)
Поблагодарили: пока никто не поблагодарил...
Тип торрента: публичный - доступные источники с открытых трекеров: 
Размер: 306 MB (занимает 0,07 DVDR, для записи нужно 1 болванка DVDR/RW)
 
 
Похожие темы
Форум Тема Автор Торрент Отв. Посл. сооб.
Музыкальные DVD (Electronic) Jean Michel Jare - Aero (2004) [DVD-Audio, 5.1 DTS, 5.1 Dolby Digital (2.0-совместимый даунмикс)] 8ad_R060d
10 | 1

0 | 3011

32

19.03.2014 14:24

Зарубежная Pop Музыка (Electronic, Pop) Marian Hill - ACT ONE (The Complete Collection) (2017) [MP3, 320 kbps CBR] Darkferse
7 | 0

1 | 1269

7

31.05.2017 13:55

Зарубежная Pop Музыка (Electronic, House, Dance, Pop) Madonna - Bitch I'm Madonna (The Remixes) (2015) [MP3, 320 kbps] 90ytr90
3 | 0

0 | 750

2

08.11.2016 07:41

Зарубежная Pop Музыка (Electronic, Synth-pop) a-ha - Cast In Steel [Vinyl Rip] (2015) [MP3, 320 kbps] 90ytr90
6 | 0

0 | 813

2

06.11.2016 12:26

Зарубежная Pop Музыка (Electronic, Pop, Dance) The Knocks - 55 (2016) [MP3, 320 kbps] 90ytr90
0 | 0

0 | 690

3

06.11.2016 10:41

Зарубежная Pop Музыка (Electronic Rock, Pop) Porcelain Black - Mannequin Factory (2015) [MP3, 320 kbps] 90ytr90
5 | 0

0 | 1270

11

11.03.2015 20:43

Зарубежная Pop Музыка (Electronic, Indie Pop) Sia - The Spotify Sessions [EP] (2017) [MP3, 320 kbps CBR] 90ytr90
22 | 1

0 | 614

6

08.04.2018 07:08

Зарубежная Pop Музыка (Electronic, House, Techno) Moby - Go-the very best of Moby (Japan) (2006) [MP3, 320 kbps CBR] 90ytr90
14 | 2

0 | 659

9

08.04.2018 10:44

Зарубежная Pop Музыка (Electronic, Dance, Alternative, Pop) Tracey Thorn - Record (2018) [MP3, 320 kbps CBR] 90ytr90
17 | 9

0 | 526

5

08.04.2018 13:05

Зарубежная Pop Музыка (Electronic, Synthpop) a-ha - MTV Unplugged: Summer Solstice (2017) [MP3, 320 kbps CBR] 90ytr90
13 | 5

0 | 717

8

08.04.2018 14:22


Яндекс.Метрика powered by Sphinx


В Н И М А Н И Е
Сайт не распространяет и не хранит электронные версии произведений, а лишь бесплатно и без коммерческой выгоды (не требуя взамен платы,
SMS и т.д.) предоставляет доступ к создаваемому пользователями каталогу ссылок на торрент-файлы, которые содержат только списки хеш-сумм.
Убедительная просьба с жалобами обращаться напрямую к пользователю, разместившему торрент файл.

Вверх