Loading...
Error

(Trip-Hop, Jungle) Lamb - Fear of Fours + Limited Edition Bonus Disc (1999) [FLAC (Tracks+.CUE), lossless]

Статистика раздачи
Размер:  601 MB   |    Зарегистрирован:  4 года 8 месяцев   |    Скачан:  4 раза

Полного источника не было: 11 дней

Сидов:  0  |  0 KB/s  ]   Личеров:  0  |  0 KB/s  ]

* - сиды/пиры с внешних источников

   
 
Автор Сообщение

8ad_R060d Пол:Муж

06-Май-2014 16:15

Lamb - Fear of Fours + Limited Edition Bonus Disc


Жанр: Trip-Hop, Jungle
Год выпуска: 1999
Производитель диска: UK & Europe (Manchester, England), Fontana - baacd2, 558 821-2
Аудиокодек: FLAC
Тип рипа: Tracks+.CUE
Битрейт аудио: lossless
Продолжительность: 00:56:00 + 00:39:21
Треклист:

Fear of Fours

01. Lullaby (Ambient Version)
02. Soft Mistake
03. Little Things
04. B Line
05. [untitled]
06. All in Your Hands
07. Less Than Two
08. Bonfire
09. Ear Parcel
10. Softly
11. Here
12. Fly
13. Alien
14. Five
15. Lullaby

Bonus Disc

01. B Line (Andy Votel Mix)
02. Gorecki (Global Communication mix)
03. Cottonwool (Fila Brazillia mix)
04. Trans Fatty Acid (Kruder & Dorfmeister Session mix)
05. Gold (Hipoptimist Alchemy mix)
Exact Audio Copy V0.99 prebeta 5 from 4. May 2009

EAC extraction logfile from 6. May 2010, 21:11

Lamb / Fear of Fours

Used drive : PLEXTOR CD-R PX-W5224A Adapter: 1 ID: 0

Read mode : Secure
Utilize accurate stream : Yes
Defeat audio cache : Yes
Make use of C2 pointers : No

Read offset correction : 30
Overread into Lead-In and Lead-Out : No
Fill up missing offset samples with silence : Yes
Delete leading and trailing silent blocks : No
Null samples used in CRC calculations : Yes
Used interface : Installed external ASPI interface
Gap handling : Appended to previous track

Used output format : User Defined Encoder
Selected bitrate : 768 kBit/s
Quality : High
Add ID3 tag : No
Command line compressor : C:\Program Files\EAC\FLAC\FLAC.EXE
Additional command line options : -6 -V -T "ALBUM=%g" -T "ARTIST=%a" -T "DATE=%y" -T "GENRE=%m" -T "TITLE=%t" -T "TRACKNUMBER=%n"

%s -o %d

TOC of the extracted CD

Track | Start | Length | Start sector | End sector
---------------------------------------------------------
1 | 2:45.00 | 3:16.65 | 12375 | 27139
2 | 6:01.65 | 3:19.07 | 27140 | 42071
3 | 9:20.72 | 2:46.58 | 42072 | 54579
4 | 12:07.55 | 0:07.00 | 54580 | 55104
5 | 12:14.55 | 4:39.12 | 55105 | 76041
6 | 16:53.67 | 1:20.25 | 76042 | 82066
7 | 18:14.17 | 4:23.28 | 82067 | 101819
8 | 22:37.45 | 7:54.20 | 101820 | 137389
9 | 30:31.65 | 3:57.02 | 137390 | 155166
10 | 34:28.67 | 3:23.33 | 155167 | 170424
11 | 37:52.25 | 5:13.40 | 170425 | 193939
12 | 43:05.65 | 4:06.62 | 193940 | 212451
13 | 47:12.52 | 5:48.68 | 212452 | 238619
14 | 53:01.45 | 2:59.15 | 238620 | 252059

Track 1

Filename D:\***\Lamb - Fear of Fours\01 - Soft Mistake.wav

Pre-gap length 0:02:47.00

Peak level 96.2 %
Track quality 100.0 %
Test CRC F168E30A
Copy CRC F168E30A
Copy OK

Track 2

Filename D:\***\Lamb - Fear of Fours\02 - Little Things.wav

Peak level 99.4 %
Track quality 100.0 %
Test CRC E8E1FC06
Copy CRC E8E1FC06
Copy OK

Track 3

Filename D:\***\Lamb - Fear of Fours\03 - B Line.wav

Pre-gap length 0:00:00.57

Peak level 99.6 %
Track quality 100.0 %
Test CRC 5AE42600
Copy CRC 5AE42600
Copy OK

Track 4

Filename D:\***\Lamb - Fear of Fours\04 - B Line Outro.wav

Peak level 47.8 %
Track quality 100.0 %
Test CRC 98611D8B
Copy CRC 98611D8B
Copy OK

Track 5

Filename D:\***\Lamb - Fear of Fours\05 - All In Your Hands.wav

Pre-gap length 0:00:02.48

Peak level 100.0 %
Track quality 100.0 %
Test CRC E4298B76
Copy CRC E4298B76
Copy OK

Track 6

Filename D:\***\Lamb - Fear of Fours\06 - Less Than Two.wav

Pre-gap length 0:00:00.22

Peak level 95.1 %
Track quality 99.8 %
Test CRC DD9A342E
Copy CRC DD9A342E
Copy OK

Track 7

Filename D:\***\Lamb - Fear of Fours\07 - Bonfire.wav

Pre-gap length 0:00:00.35

Peak level 92.8 %
Track quality 100.0 %
Test CRC 6BF04057
Copy CRC 6BF04057
Copy OK

Track 8

Filename D:\***\Lamb - Fear of Fours\08 - Ear Parcel.wav

Peak level 95.1 %
Track quality 100.0 %
Test CRC B4765771
Copy CRC B4765771
Copy OK

Track 9

Filename D:\***\Lamb - Fear of Fours\09 - Softly.wav

Pre-gap length 0:00:00.18

Peak level 95.1 %
Track quality 100.0 %
Test CRC 55360F67
Copy CRC 55360F67
Copy OK

Track 10

Filename D:\***\Lamb - Fear of Fours\10 - Here.wav

Pre-gap length 0:00:00.57

Peak level 99.5 %
Track quality 100.0 %
Test CRC B3F6A607
Copy CRC B3F6A607
Copy OK

Track 11

Filename D:\***\Lamb - Fear of Fours\11 - Fly.wav

Pre-gap length 0:00:00.73

Peak level 99.6 %
Track quality 100.0 %
Test CRC E6E42C57
Copy CRC E6E42C57
Copy OK

Track 12

Filename D:\***\Lamb - Fear of Fours\12 - Alien.wav

Peak level 92.8 %
Track quality 100.0 %
Test CRC 800A0227
Copy CRC 800A0227
Copy OK

Track 13

Filename D:\***\Lamb - Fear of Fours\13 - Five.wav

Peak level 98.4 %
Track quality 100.0 %
Test CRC 78B3273B
Copy CRC 78B3273B
Copy OK

Track 14

Filename D:\***\Lamb - Fear of Fours\14 - Lullaby.wav

Pre-gap length 0:00:00.23

Peak level 90.3 %
Track quality 100.0 %
Test CRC 89EAA525
Copy CRC 89EAA525
Copy OK

No errors occurred

End of status report

------------------------------------------------------------

Exact Audio Copy V0.99 prebeta 5 from 4. May 2009

EAC extraction logfile from 6. May 2010, 21:20

Lamb / Fear of Fours

Used drive : PLEXTOR CD-R PX-W5224A Adapter: 1 ID: 0

Read mode : Secure
Utilize accurate stream : Yes
Defeat audio cache : Yes
Make use of C2 pointers : No

Read offset correction : 30
Overread into Lead-In and Lead-Out : No
Fill up missing offset samples with silence : Yes
Delete leading and trailing silent blocks : No
Null samples used in CRC calculations : Yes
Used interface : Installed external ASPI interface

Used output format : User Defined Encoder
Selected bitrate : 768 kBit/s
Quality : High
Add ID3 tag : No
Command line compressor : C:\Program Files\EAC\FLAC\FLAC.EXE
Additional command line options : -6 -V -T "ALBUM=%g" -T "ARTIST=%a" -T "DATE=%y" -T "GENRE=%m" -T "TITLE=%t" -T "TRACKNUMBER=%n" %s -o %d

TOC of the extracted CD

Track | Start | Length | Start sector | End sector
---------------------------------------------------------
1 | 2:45.00 | 3:16.65 | 12375 | 27139
2 | 6:01.65 | 3:19.07 | 27140 | 42071
3 | 9:20.72 | 2:46.58 | 42072 | 54579
4 | 12:07.55 | 0:07.00 | 54580 | 55104
5 | 12:14.55 | 4:39.12 | 55105 | 76041
6 | 16:53.67 | 1:20.25 | 76042 | 82066
7 | 18:14.17 | 4:23.28 | 82067 | 101819
8 | 22:37.45 | 7:54.20 | 101820 | 137389
9 | 30:31.65 | 3:57.02 | 137390 | 155166
10 | 34:28.67 | 3:23.33 | 155167 | 170424
11 | 37:52.25 | 5:13.40 | 170425 | 193939
12 | 43:05.65 | 4:06.62 | 193940 | 212451
13 | 47:12.52 | 5:48.68 | 212452 | 238619
14 | 53:01.45 | 2:59.15 | 238620 | 252059

Range status and errors

Selected range (Sectors 0-12374)

Filename D:\***\Lamb - Fear of Fours\00 - Fear of Fours (PREGAP).wav

Peak level 90.2 %
Range quality 100.0 %
Copy CRC E097CE66
Copy OK

No errors occurred

End of status report

------------------------------------------------------------

Exact Audio Copy V0.99 prebeta 5 from 4. May 2009

EAC extraction logfile from 6. May 2010, 21:21

Lamb / Fear of Fours

Used drive : PLEXTOR CD-R PX-W5224A Adapter: 1 ID: 0

Read mode : Secure
Utilize accurate stream : Yes
Defeat audio cache : Yes
Make use of C2 pointers : No

Read offset correction : 30
Overread into Lead-In and Lead-Out : No
Fill up missing offset samples with silence : Yes
Delete leading and trailing silent blocks : No
Null samples used in CRC calculations : Yes
Used interface : Installed external ASPI interface

Used output format : User Defined Encoder
Selected bitrate : 768 kBit/s
Quality : High
Add ID3 tag : No
Command line compressor : C:\Program Files\EAC\FLAC\FLAC.EXE
Additional command line options : -6 -V -T "ALBUM=%g" -T "ARTIST=%a" -T "DATE=%y" -T "GENRE=%m" -T "TITLE=%t" -T "TRACKNUMBER=%n" %s -o %d

TOC of the extracted CD

Track | Start | Length | Start sector | End sector
---------------------------------------------------------
1 | 2:45.00 | 3:16.65 | 12375 | 27139
2 | 6:01.65 | 3:19.07 | 27140 | 42071
3 | 9:20.72 | 2:46.58 | 42072 | 54579
4 | 12:07.55 | 0:07.00 | 54580 | 55104
5 | 12:14.55 | 4:39.12 | 55105 | 76041
6 | 16:53.67 | 1:20.25 | 76042 | 82066
7 | 18:14.17 | 4:23.28 | 82067 | 101819
8 | 22:37.45 | 7:54.20 | 101820 | 137389
9 | 30:31.65 | 3:57.02 | 137390 | 155166
10 | 34:28.67 | 3:23.33 | 155167 | 170424
11 | 37:52.25 | 5:13.40 | 170425 | 193939
12 | 43:05.65 | 4:06.62 | 193940 | 212451
13 | 47:12.52 | 5:48.68 | 212452 | 238619
14 | 53:01.45 | 2:59.15 | 238620 | 252059

Range status and errors

Selected range (Sectors 0-12374)

Filename D:\***\Lamb - Fear of Fours\00 - Fear of Fours (PREGAP).wav

Peak level 90.2 %
Range quality 100.0 %
Copy CRC E097CE66
Copy OK

No errors occurred

End of status report
X Lossless Decoder version 20110212 (127.0)

XLD extraction logfile from 2011-02-20 23:21:06 +0100

Lamb / Fear of Fours (bonus disc)

Used drive : OPTIARC DVD RW AD-5680H (revision 3AHB)

Ripper mode : CDParanoia III 10.2
Disable audio cache : OK for the drive with a cache less than 2750KiB
Make use of C2 pointers : NO
Read offset correction : 48
Max retry count : 100
Gap status : Analyzed, Appended

TOC of the extracted CD
Track | Start | Length | Start sector | End sector
---------------------------------------------------------
1 | 00:00:00 | 05:37:35 | 0 | 25309
2 | 05:37:35 | 09:46:05 | 25310 | 69264
3 | 15:23:40 | 08:26:72 | 69265 | 107286
4 | 23:50:37 | 09:00:63 | 107287 | 147849
5 | 32:51:25 | 06:30:35 | 147850 | 177134

AccurateRip Summary
Track 01 : OK (confidence 14)
Track 02 : OK (confidence 15)
Track 03 : OK (confidence 14)
Track 04 : OK (confidence 14)
Track 05 : OK (confidence 14)
->All tracks accurately ripped.

All Tracks
Album gain : -6.55 dB
Peak : 0.998932
Statistics
Read error : 0
Skipped (treated as error) : 0
Edge jitter error (maybe fixed) : 0
Atom jitter error (maybe fixed) : 0
Drift error (maybe fixed) : 0
Dropped bytes error (maybe fixed) : 0
Duplicated bytes error (maybe fixed) : 0

Track 01
Filename : 01 - Lamb - Fear of Fours (bonus disc) - B Line (Andy Votel mix).flac
Pre-gap length : 00:02:00

Track gain : -5.43 dB
Peak : 0.918671
CRC32 hash (test run) : B59BC89A
CRC32 hash : B59BC89A
CRC32 hash (skip zero) : D3921BE0
AccurateRip signature : 9687887D
->Accurately ripped! (confidence 14)
Statistics
Read error : 0
Skipped (treated as error) : 0
Edge jitter error (maybe fixed) : 0
Atom jitter error (maybe fixed) : 0
Drift error (maybe fixed) : 0
Dropped bytes error (maybe fixed) : 0
Duplicated bytes error (maybe fixed) : 0
Inconsistency in error sectors : 0

Track 02
Filename : 02 - Lamb - Fear of Fours (bonus disc) - Górecki (Global Communication mix).flac
Pre-gap length : 00:03:15

Track gain : -5.46 dB
Peak : 0.998932
CRC32 hash (test run) : 08DAC976
CRC32 hash : 08DAC976
CRC32 hash (skip zero) : 12EC4CE2
AccurateRip signature : 5442784C
->Accurately ripped! (confidence 15)
Statistics
Read error : 0
Skipped (treated as error) : 0
Edge jitter error (maybe fixed) : 0
Atom jitter error (maybe fixed) : 0
Drift error (maybe fixed) : 0
Dropped bytes error (maybe fixed) : 0
Duplicated bytes error (maybe fixed) : 0
Inconsistency in error sectors : 0

Track 03
Filename : 03 - Lamb - Fear of Fours (bonus disc) - Cottonwool (Fila Brazillia mix).flac
Pre-gap length : 00:01:25

Track gain : -8.32 dB
Peak : 0.971039
CRC32 hash (test run) : 21D61754
CRC32 hash : 21D61754
CRC32 hash (skip zero) : 62B4EEE2
AccurateRip signature : 6E0851A6
->Accurately ripped! (confidence 14)
Statistics
Read error : 0
Skipped (treated as error) : 0
Edge jitter error (maybe fixed) : 0
Atom jitter error (maybe fixed) : 0
Drift error (maybe fixed) : 0
Dropped bytes error (maybe fixed) : 0
Duplicated bytes error (maybe fixed) : 0
Inconsistency in error sectors : 0

Track 04
Filename : 04 - Lamb - Fear of Fours (bonus disc) - Trans Fatty Acid (Kruder & Dorfmeister Session mix).flac
Pre-gap length : 00:01:32

Track gain : -5.16 dB
Peak : 0.951477
CRC32 hash (test run) : 72AE2D79
CRC32 hash : 72AE2D79
CRC32 hash (skip zero) : DB082151
AccurateRip signature : 5911D327
->Accurately ripped! (confidence 14)
Statistics
Read error : 0
Skipped (treated as error) : 0
Edge jitter error (maybe fixed) : 0
Atom jitter error (maybe fixed) : 0
Drift error (maybe fixed) : 0
Dropped bytes error (maybe fixed) : 0
Duplicated bytes error (maybe fixed) : 0
Inconsistency in error sectors : 0

Track 05
Filename : 05 - Lamb - Fear of Fours (bonus disc) - Gold (Hipoptimist Alchemy mix).flac
Pre-gap length : 00:01:13

Track gain : -0.99 dB
Peak : 0.810760
CRC32 hash (test run) : A7118CD7
CRC32 hash : A7118CD7
CRC32 hash (skip zero) : 4797EAEF
AccurateRip signature : FF6C915A
->Accurately ripped! (confidence 14)
Statistics
Read error : 0
Skipped (treated as error) : 0
Edge jitter error (maybe fixed) : 0
Atom jitter error (maybe fixed) : 0
Drift error (maybe fixed) : 0
Dropped bytes error (maybe fixed) : 0
Duplicated bytes error (maybe fixed) : 0
Inconsistency in error sectors : 0

No errors occurred

End of status report
REM GENRE Lo-Fi
REM DATE 1999
REM DISCID CF0C7B0E
REM COMMENT "ExactAudioCopy v0.99pb5"
PERFORMER "Lamb"
TITLE "Fear of Fours"
FILE "01 - Soft Mistake.wav" WAVE
TRACK 01 AUDIO
TITLE "Soft Mistake"
PERFORMER "Lamb"
PREGAP 02:45:00
INDEX 01 00:00:00
FILE "02 - Little Things.wav" WAVE
TRACK 02 AUDIO
TITLE "Little Things"
PERFORMER "Lamb"
INDEX 01 00:00:00
TRACK 03 AUDIO
TITLE "B Line"
PERFORMER "Lamb"
INDEX 00 03:18:25
FILE "03 - B Line.wav" WAVE
INDEX 01 00:00:00
FILE "04 - B Line Outro.wav" WAVE
TRACK 04 AUDIO
TITLE "B Line Outro"
PERFORMER "Lamb"
INDEX 01 00:00:00
TRACK 05 AUDIO
TITLE "All In Your Hands"
PERFORMER "Lamb"
INDEX 00 00:04:27
FILE "05 - All In Your Hands.wav" WAVE
INDEX 01 00:00:00
TRACK 06 AUDIO
TITLE "Less Than Two"
PERFORMER "Lamb"
INDEX 00 04:38:65
FILE "06 - Less Than Two.wav" WAVE
INDEX 01 00:00:00
TRACK 07 AUDIO
TITLE "Bonfire"
PERFORMER "Lamb"
INDEX 00 01:19:65
FILE "07 - Bonfire.wav" WAVE
INDEX 01 00:00:00
FILE "08 - Ear Parcel.wav" WAVE
TRACK 08 AUDIO
TITLE "Ear Parcel"
PERFORMER "Lamb"
INDEX 01 00:00:00
TRACK 09 AUDIO
TITLE "Softly"
PERFORMER "Lamb"
INDEX 00 07:54:02
FILE "09 - Softly.wav" WAVE
INDEX 01 00:00:00
TRACK 10 AUDIO
TITLE "Here"
PERFORMER "Lamb"
INDEX 00 03:56:20
FILE "10 - Here.wav" WAVE
INDEX 01 00:00:00
TRACK 11 AUDIO
TITLE "Fly"
PERFORMER "Lamb"
INDEX 00 03:22:35
FILE "11 - Fly.wav" WAVE
INDEX 01 00:00:00
FILE "12 - Alien.wav" WAVE
TRACK 12 AUDIO
TITLE "Alien"
PERFORMER "Lamb"
INDEX 01 00:00:00
FILE "13 - Five.wav" WAVE
TRACK 13 AUDIO
TITLE "Five"
PERFORMER "Lamb"
INDEX 01 00:00:00
TRACK 14 AUDIO
TITLE "Lullaby"
PERFORMER "Lamb"
INDEX 00 05:48:45
FILE "14 - Lullaby.wav" WAVE
INDEX 01 00:00:00
TITLE "Fear of Fours (bonus disc)"
PERFORMER "Lamb"
CATALOG 0731454641722
REM DATE "1999"
REM DISCID 3F093905
REM REPLAYGAIN_ALBUM_GAIN -6.55 dB
REM REPLAYGAIN_ALBUM_PEAK 0.998932
FILE "01 - Lamb - Fear of Fours (bonus disc) - B Line (Andy Votel mix).wav" WAVE
TRACK 01 AUDIO
TITLE "B Line (Andy Votel mix)"
ISRC GBF089900139
REM REPLAYGAIN_TRACK_GAIN -5.43 dB
REM REPLAYGAIN_TRACK_PEAK 0.918671
INDEX 01 00:00:00
TRACK 02 AUDIO
TITLE "Górecki (Global Communication mix)"
ISRC GBF089700675
REM REPLAYGAIN_TRACK_GAIN -5.46 dB
REM REPLAYGAIN_TRACK_PEAK 0.998932
INDEX 00 05:34:20
FILE "02 - Lamb - Fear of Fours (bonus disc) - Górecki (Global Communication mix).wav" WAVE
INDEX 01 00:00:00
TRACK 03 AUDIO
TITLE "Cottonwool (Fila Brazillia mix)"
ISRC GBF089500662
REM REPLAYGAIN_TRACK_GAIN -8.32 dB
REM REPLAYGAIN_TRACK_PEAK 0.971039
INDEX 00 09:44:55
FILE "03 - Lamb - Fear of Fours (bonus disc) - Cottonwool (Fila Brazillia mix).wav" WAVE
INDEX 01 00:00:00
TRACK 04 AUDIO
TITLE "Trans Fatty Acid (Kruder & Dorfmeister Session mix)"
ISRC GBF089700185
REM REPLAYGAIN_TRACK_GAIN -5.16 dB
REM REPLAYGAIN_TRACK_PEAK 0.951477
INDEX 00 08:25:40
FILE "04 - Lamb - Fear of Fours (bonus disc) - Trans Fatty Acid (Kruder & Dorfmeister Session mix).wav" WAVE
INDEX 01 00:00:00
TRACK 05 AUDIO
TITLE "Gold (Hipoptimist Alchemy mix)"
ISRC GBF089600870
REM REPLAYGAIN_TRACK_GAIN -0.99 dB
REM REPLAYGAIN_TRACK_PEAK 0.810760
INDEX 00 08:59:50
FILE "05 - Lamb - Fear of Fours (bonus disc) - Gold (Hipoptimist Alchemy mix).wav" WAVE
INDEX 01 00:00:00

Этот торрент недоступен для скачивания без регистрации, однако доступен по публичной magnet-ссылке (источники с публичных трекеров). Перед использованием ссылки прочтите, пожалуйста Пользовательское соглашение, а также как можно дольше оставайтесь на раздаче! Для того, чтобы скачать сам торрент-файл (который видит больше источников), а также для того, чтобы поблагодарить релизера, вам необходимо зарегистрироваться. Если регистрироваться лень - вы можете также попробовать скачать релиз по нашим партнерским ссылкам ниже. Кроме того, зарегистрированным пользователям не показывается всплывающая реклама при скачивании.

[underverse.su].t39890.torrent
Трекер: Зарегистрирован   [ 06.05.2014 16:15 ]  

Статус: проверено (by Evgenii82 at 06.05.2014 20:02)
Поблагодарили: 1 человек
Тип торрента: публичный - доступные источники с открытых трекеров: 
Размер: 601 MB (занимает 0,13 DVDR, для записи нужно 1 болванка DVDR/RW)
 
 
Похожие темы
Форум Тема Автор Торрент Отв. Посл. сооб.
Trip Hop, Abstract Hip Hop (Trip-Hop, Dubstep) Железное небо / Kaiti Kink Ensemble - Under the Iron Sky (2012) [MP3, 320 kbps] ZondeR
2 | 0

1 | 2063

1

21.06.2014 19:55

Trip Hop, Abstract Hip Hop (Trip-Hop, Instrumental Hip-Hop, Broken Beat) The New Law - A Bull In The Woods (2018) [MP3, 320 kbps CBR] Darkferse
9 | 0

0 | 560

5

10.01.2018 23:04

Chillout, Lounge, Downtempo (Lossless) (Trip-Hop, Illbient, Modern Classical, Downtempo) Saltillo - Ganglion (2006) [FLAC (Tracks+.CUE), lossless] ost
0 | 0

0 | 1049

3

08.06.2014 10:52

Trip Hop, Abstract Hip-Hop (Lossless) (Trip-Hop, Downtempo, Hip-Hop) Terranova - Dj-Kicks (1998) [FLAC (Tracks+.CUE), lossless] 8ad_R060d
5 | 0

3 | 1871

5

29.05.2013 18:29

Trip Hop, Abstract Hip-Hop (Lossless) (Trip-Hop, Chillout, Dub, Downtempo) Sofa Surfers - 20 (2017) [FLAC (Tracks), Lossless] Web Бишеп
7 | 1

0 | 645

2

25.10.2017 16:21

Trip Hop, Abstract Hip-Hop (Lossless) (Trip-Hop, Downtempo) Flunk - Your Beautiful Lies (2018) [FLAC (Tracks), lossless] web Darkferse
7 | 0

0 | 243

3

29.07.2018 10:12

Архив (электронная музыка) (Trip-Hop, Shoegaze, New Wave) Curl - We Are Complex (2010) [MP3, kbps] ZondeR
0 | 0

1 | 1782

0

05.11.2011 14:45

Архив (электронная музыка) (Trip-Hop,Downtempo)VA - Femme Trip Hop Exercises vol.6 (2009) [MP3, 192kbps] LAMA
0 | 0

1 | 1464

1

08.10.2010 21:24

Архив (электронная музыка) (Trip-Hop,Downtempo,Lo-Fi) VA - Femme Trip Hop Exercises 8 (2009) [MP3, 192kbps] LAMA
0 | 0

1 | 1381

1

08.10.2010 21:24

Архив (электронная музыка) (Trip-hop, House) Faithless - The Dance (2010) [MP3, 320kbps CBR] ZondeR
0 | 0

1 | 2028

2

31.01.2018 20:21


Яндекс.Метрика powered by Sphinx


В Н И М А Н И Е
Сайт не распространяет и не хранит электронные версии произведений, а лишь бесплатно и без коммерческой выгоды (не требуя взамен платы,
SMS и т.д.) предоставляет доступ к создаваемому пользователями каталогу ссылок на торрент-файлы, которые содержат только списки хеш-сумм.
Убедительная просьба с жалобами обращаться напрямую к пользователю, разместившему торрент файл.

Вверх