Loading...
Error

Ганнибал / Hannibal / Сезон: 2 / Серии: 1-13 из 13 (Гильермо Наварро, Майкл Раймер, Дэвид Слэйд) [2014, детектив, криминал, драма, WEB-DL 1080p] MVO (AlexFilm)

Статистика раздачи
Размер:  21,71 GB   |    Зарегистрирован:  4 года 5 месяцев   |    Скачан:  8 раз

Полного источника не было: 2 дня 6 часов

Сидов:  0  |  0 KB/s  ]   Личеров:  0  |  0 KB/s  ]

* - сиды/пиры с внешних источников

   
 
Автор Сообщение

uzi2009 Пол:Муж

27-Май-2014 11:11

Ганнибал / Hannibal

Год выпуска: 2014
Страна: США
Жанр: драма, криминал
Продолжительность: 44 мин
Перевод: Профессиональный многоголосый закадровый (AlexFilm)
Субтитры: Русские, Английские
Режиссер: Гильермо Наварро, Майкл Раймер, Дэвид Слэйд

В ролях:
Мадс Миккельсен, Хью Дэнси, Каролин Давернас, Лара Жан Чоростецки, Аарон Абрамс, Лоренс Фишбёрн, Эттьенн Парк, Скотт Томпсон, Торианна Ли, Демор Барнс

Описание:
Уилл Грэм — одаренный профайлер, который вместе с ФБР разыскивает серийного убийцу. Уникальный способ мышления Грэма дает ему удивительную способность глубоко проникаться чувствами другого человека, даже психопата. Он может понять, что ими движет. Но когда ум преследуемого убийцы оказывается слишком сложным, он прибегает к помощи доктора Лектера, одного из ведущих психиатрических умов в стране.

Качество: WEB-DL 1080p
Формат: MKV
Видео: 1912x1072, 23.976 fps, MPEG-4 AVC ~4576 kbps avg, 0.093 bit/pixel
Аудио 1 : Russian, 48 kHz, AC3 Dolby Digital, 3/2 (L,C,R,l,r) + LFE ch, ~384.00 kbps avg
Аудио 2: English, 48 kHz, AC3 Dolby Digital, 3/2 (L,C,R,l,r) + LFE ch, ~384.00 kbps avg
Релиз: AlexFilm

Постер:: Андрей Шапал
Перевод: Doctor Joker и MartinaG
Монтаж и сведение звука: Михаил Шорыгин
Роли озвучивали:
Татьяна Манетина
Пётр Иващенко (Гланц)
Михаил Суслов
Константин Погодаев
Владимир Курдов
Сэмпл / Кинопоиск

MI


Код:

Формат                                   : Matroska
Версия формата                           : Version 4 / Version 2
Размер файла                             : 1,64 Гбайт
Продолжительность                        : 43 м.
Общий поток                              : 5452 Кбит/сек
Название фильма                          : Hannibal.S02E01.Kaiseki.WEB-DL.1080p.Rus.Eng.AlexFilm
Дата кодирования                         : UTC 2014-03-04 20:56:57
Программа кодирования                    : mkvmerge v6.1.0 ('Old Devil') built on Mar  4 2013 09:10:42
Библиотека кодирования                   : libebml v1.3.0 + libmatroska v1.4.0

Видео
Идентификатор                            : 1
Формат                                   : AVC
Формат/Информация                        : Advanced Video Codec
Профиль формата                          : High@L4.0
Параметр CABAC формата                   : Да
Параметр ReFrames формата                : 4 кадра
Идентификатор кодека                     : V_MPEG4/ISO/AVC
Продолжительность                        : 43 м.
Битрейт                                  : 4576 Кбит/сек
Ширина                                   : 1912 пикселей
Высота                                   : 1072 пикселя
Соотношение сторон                       : 16:9
Режим частоты кадров                     : Постоянный
Частота кадров                           : 23,976 кадра/сек
Цветовое пространство                    : YUV
Субдискретизация насыщенности            : 4:2:0
Битовая глубина                          : 8 бит
Тип развёртки                            : Прогрессивная
Бит/(Пиксели*Кадры)                      : 0.093
Размер потока                            : 1,38 Гбайт (84%)
Язык                                     : English
Default                                  : Да
Forced                                   : Нет
Основные цвета                           : BT.709
Характеристики трансфера                 : BT.709
Коэффициенты матрицы                     : BT.709

Аудио #1
Идентификатор                            : 2
Формат                                   : AC-3
Формат/Информация                        : Audio Coding 3
Расширение режима                        : CM (complete main)
Параметр Endianness формата              : Big
Идентификатор кодека                     : A_AC3
Продолжительность                        : 43 м.
Вид битрейта                             : Постоянный
Битрейт                                  : 384 Кбит/сек
Каналы                                   : 6 каналов
Расположение каналов                     : Front: L C R, Side: L R, LFE
Частота                                  : 48,0 КГц
Битовая глубина                          : 16 бит
Метод сжатия                             : С потерями
Размер потока                            : 119 Мбайт (7%)
Заголовок                                : AlexFilm
Язык                                     : Russian
Default                                  : Да
Forced                                   : Нет

Аудио #2
Идентификатор                            : 3
Формат                                   : AC-3
Формат/Информация                        : Audio Coding 3
Расширение режима                        : CM (complete main)
Параметр Endianness формата              : Big
Идентификатор кодека                     : A_AC3
Продолжительность                        : 43 м.
Вид битрейта                             : Постоянный
Битрейт                                  : 384 Кбит/сек
Каналы                                   : 6 каналов
Расположение каналов                     : Front: L C R, Side: L R, LFE
Частота                                  : 48,0 КГц
Битовая глубина                          : 16 бит
Метод сжатия                             : С потерями
Размер потока                            : 119 Мбайт (7%)
Заголовок                                : Eng Original
Язык                                     : English
Default                                  : Нет
Forced                                   : Нет

Текст #1
Идентификатор                            : 4
Формат                                   : ASS
Идентификатор кодека                     : S_TEXT/ASS
Идентификатор кодека/Информация          : Advanced Sub Station Alpha
Метод сжатия                             : Без потерь
Заголовок                                : Rus Subs Doctor Joker & MartinaG
Язык                                     : Russian
Default                                  : Да
Forced                                   : Нет

Текст #2
Идентификатор                            : 5
Формат                                   : UTF-8
Идентификатор кодека                     : S_TEXT/UTF8
Идентификатор кодека/Информация          : UTF-8 Plain Text
Язык                                     : English
Default                                  : Нет
Forced                                   : Нет
Скриншоты
pic pic pic pic

Этот торрент недоступен для скачивания без регистрации, однако доступен по публичной magnet-ссылке (источники с публичных трекеров). Перед использованием ссылки прочтите, пожалуйста Пользовательское соглашение, а также как можно дольше оставайтесь на раздаче! Для того, чтобы скачать сам торрент-файл (который видит больше источников), а также для того, чтобы поблагодарить релизера, вам необходимо зарегистрироваться. Если регистрироваться лень - вы можете также попробовать скачать релиз по нашим партнерским ссылкам ниже. Кроме того, зарегистрированным пользователям не показывается всплывающая реклама при скачивании.

[underverse.su].t40483.torrent
Трекер: Зарегистрирован   [ 27.05.2014 11:11 ]  

Статус: проверено (by nemos at 05.06.2014 17:31)
Поблагодарили: пока никто не поблагодарил...
Тип торрента: публичный - доступные источники с открытых трекеров: 
Размер: 21,71 GB (занимает 4,96 DVDR, для записи нужно 5 болванок DVDR/RW)
 
 
Похожие темы
Форум Тема Автор Торрент Отв. Посл. сооб.
Зарубежные сериалы Ганнибал / Hannibal / Сезон 3 (1-13 серии из 13) (Майкл Раймер, Гильермо Наварро, Винченцо Натали) [2015 г., детектив, триллер, криминал, драма, WEB-DLRip] DVO + Original older
5 | 2

3 | 1285

13

03.09.2015 08:02

Архив (Сериалы) Ганнибал / Hannibal / Сезон 1 (1 - 8 Серии) (Питер Медак, Гильермо Наварро, Майкл Раймер) [2012 г., Сериал, Детектив, Драма, Адреналин, Повод задуматься, Криминал, Для всех, Интрига, HDTVRip] MVO tom.jerry
0 | 0

1 | 1284

13

31.01.2018 16:57

Архив (Сериалы) Ганнибал / Hannibal / Сезон 1 / Серии 1-13 (13) (Гильермо Наварро, Майкл Раймер, Дэвид Слэйд) [2013 г., Детектив, криминал, драма, WEBDLRip-AVC] MVO + Original Чертёнок
1 | 0

4 | 895

35

24.05.2018 22:22


Яндекс.Метрика powered by Sphinx


В Н И М А Н И Е
Сайт не распространяет и не хранит электронные версии произведений, а лишь бесплатно и без коммерческой выгоды (не требуя взамен платы,
SMS и т.д.) предоставляет доступ к создаваемому пользователями каталогу ссылок на торрент-файлы, которые содержат только списки хеш-сумм.
Убедительная просьба с жалобами обращаться напрямую к пользователю, разместившему торрент файл.

Вверх