Loading...
Error

(Downtempo, Dub, Trip Hop) Thievery Corporation - Culture Of Fear (2011) [FLAC (Tracks+.CUE), lossless]

Статистика раздачи
Размер:  316 MB   |    Зарегистрирован:  4 года 6 месяцев   |    Скачан:  9 раз

Полного источника не было: 1 месяц 5 дней

Сидов:  0  |  0 KB/s  ]   Личеров:  0  |  0 KB/s  ]

* - сиды/пиры с внешних источников

   
 
Автор Сообщение

ost 

25-Июн-2014 14:22

Thievery Corporation - Culture Of Fear

Жанр: Downtempo, Dub, Trip Hop
Год выпуска: 2011
Производитель диска: Eighteenth Street Lounge Music
Аудиокодек: FLAC
Тип рипа: Tracks+.CUE
Битрейт аудио: lossless
Продолжительность: 00:49:37

Треклист:

01. Web of Deception (04:32)
02. Culture of Fear (03:12)
03. Take My Soul (03:51)
04. Light Flares (03:01)
05. Stargazer (03:44)
06. Where It All Starts (03:21)
07. Tower Seven (07:48)
08. Is It Over? (03:22)
09. False Flag Dub (03:04)
10. Safar (The Journey) (01:43)
11. Fragments (04:10)
12. Overstand (03:40)
13. Free (04:02)
REM DATE 2011
REM GENRE Trip-Hop
REM DISCID BE0BA10D
REM COMMENT "ExactAudioCopy v1.0b1"
PERFORMER "Thievery Corporation"
TITLE "Culture Of Fear"
FILE "01 - Web of Deception.wav" WAVE
TRACK 01 AUDIO
PERFORMER "Thievery Corporation"
TITLE "Web of Deception"
INDEX 01 00:00:00
FILE "02 - Culture of Fear.wav" WAVE
TRACK 02 AUDIO
PERFORMER "Thievery Corporation"
TITLE "Culture of Fear"
INDEX 01 00:00:00
TRACK 03 AUDIO
PERFORMER "Thievery Corporation"
TITLE "Take My Soul"
INDEX 00 03:11:37
FILE "03 - Take My Soul.wav" WAVE
INDEX 01 00:00:00
TRACK 04 AUDIO
PERFORMER "Thievery Corporation"
TITLE "Light Flares"
INDEX 00 03:51:27
FILE "04 - Light Flares.wav" WAVE
INDEX 01 00:00:00
FILE "05 - Stargazer.wav" WAVE
TRACK 05 AUDIO
PERFORMER "Thievery Corporation"
TITLE "Stargazer"
INDEX 01 00:00:00
TRACK 06 AUDIO
PERFORMER "Thievery Corporation"
TITLE "Where It All Starts"
INDEX 00 03:43:50
FILE "06 - Where It All Starts.wav" WAVE
INDEX 01 00:00:00
TRACK 07 AUDIO
PERFORMER "Thievery Corporation"
TITLE "Tower Seven"
INDEX 00 03:20:20
FILE "07 - Tower Seven.wav" WAVE
INDEX 01 00:00:00
FILE "08 - Is It Over.wav" WAVE
TRACK 08 AUDIO
PERFORMER "Thievery Corporation"
TITLE "Is It Over"
INDEX 01 00:00:00
TRACK 09 AUDIO
PERFORMER "Thievery Corporation"
TITLE "False Flag Dub"
INDEX 00 03:21:45
FILE "09 - False Flag Dub.wav" WAVE
INDEX 01 00:00:00
TRACK 10 AUDIO
PERFORMER "Thievery Corporation"
TITLE "Safar (The Journey)"
INDEX 00 03:03:23
FILE "10 - Safar (The Journey).wav" WAVE
INDEX 01 00:00:00
TRACK 11 AUDIO
PERFORMER "Thievery Corporation"
TITLE "Fragments"
INDEX 00 01:41:70
FILE "11 - Fragments.wav" WAVE
INDEX 01 00:00:00
TRACK 12 AUDIO
PERFORMER "Thievery Corporation"
TITLE "Overstand"
INDEX 00 04:09:43
FILE "12 - Overstand.wav" WAVE
INDEX 01 00:00:00
FILE "13 - Free.wav" WAVE
TRACK 13 AUDIO
PERFORMER "Thievery Corporation"
TITLE "Free"
INDEX 01 00:00:00
Exact Audio Copy V1.0 beta 1 from 15. November 2010

EAC extraction logfile from 24. June 2011, 12:35

Thievery Corporation / Culture of Fear

Used drive : MATSHITADVD-R UJ-867 Adapter: 0 ID: 0

Read mode : Secure
Utilize accurate stream : Yes
Defeat audio cache : Yes
Make use of C2 pointers : No

Read offset correction : 102
Overread into Lead-In and Lead-Out : No
Fill up missing offset samples with silence : Yes
Delete leading and trailing silent blocks : No
Null samples used in CRC calculations : Yes
Used interface : Native Win32 interface for Win NT & 2000
Gap handling : Appended to previous track

Used output format : User Defined Encoder
Selected bitrate : 320 kBit/s
Quality : High
Add ID3 tag : No
Command line compressor : C:\Program Files\Exact Audio Copy\Flac\flac.exe
Additional command line options : -V -8 -T "artist=%a" -T "title=%t" -T "album=%g" -T "date=%y" -T "tracknumber=%n" -T "genre=%m" %s

TOC of the extracted CD

Track | Start | Length | Start sector | End sector
---------------------------------------------------------
1 | 0:00.00 | 4:32.60 | 0 | 20459
2 | 4:32.60 | 3:12.50 | 20460 | 34909
3 | 7:45.35 | 3:51.42 | 34910 | 52276
4 | 11:37.02 | 3:01.30 | 52277 | 65881
5 | 14:38.32 | 3:44.58 | 65882 | 82739
6 | 18:23.15 | 3:21.02 | 82740 | 97816
7 | 21:44.17 | 7:48.23 | 97817 | 132939
8 | 29:32.40 | 3:22.52 | 132940 | 148141
9 | 32:55.17 | 3:04.70 | 148142 | 162011
10 | 36:00.12 | 1:43.20 | 162012 | 169756
11 | 37:43.32 | 4:10.65 | 169757 | 188571
12 | 41:54.22 | 3:40.15 | 188572 | 205086
13 | 45:34.37 | 4:02.63 | 205087 | 223299

Track 1

Filename C:\temp\Thievery Corporation - 2011 - Culture of Fear\01 - Web of Deception.wav

Pre-gap length 0:00:02.00

Peak level 100.0 %
Extraction speed 1.2 X
Track quality 100.0 %
Test CRC 00D7E7B5
Copy CRC 00D7E7B5
Track not present in AccurateRip database
Copy OK

Track 2

Filename C:\temp\Thievery Corporation - 2011 - Culture of Fear\02 - Culture of Fear.wav

Peak level 99.9 %
Extraction speed 1.4 X
Track quality 100.0 %
Test CRC A8171F7A
Copy CRC A8171F7A
Track not present in AccurateRip database
Copy OK

Track 3

Filename C:\temp\Thievery Corporation - 2011 - Culture of Fear\03 - Take My Soul.wav

Pre-gap length 0:00:01.17

Peak level 100.0 %
Extraction speed 1.5 X
Track quality 100.0 %
Test CRC 6EE751D9
Copy CRC 6EE751D9
Track not present in AccurateRip database
Copy OK

Track 4

Filename C:\temp\Thievery Corporation - 2011 - Culture of Fear\04 - Light Flares.wav

Pre-gap length 0:00:00.20

Peak level 100.0 %
Extraction speed 1.5 X
Track quality 100.0 %
Test CRC 0BBF3339
Copy CRC 0BBF3339
Track not present in AccurateRip database
Copy OK

Track 5

Filename C:\temp\Thievery Corporation - 2011 - Culture of Fear\05 - Stargazer.wav

Peak level 100.0 %
Extraction speed 1.4 X
Track quality 99.9 %
Test CRC 2F929059
Copy CRC 2F929059
Track not present in AccurateRip database
Copy OK

Track 6

Filename C:\temp\Thievery Corporation - 2011 - Culture of Fear\06 - Where It All Starts.wav

Pre-gap length 0:00:01.10

Peak level 100.0 %
Extraction speed 1.7 X
Track quality 100.0 %
Test CRC 290332EC
Copy CRC 290332EC
Track not present in AccurateRip database
Copy OK

Track 7

Filename C:\temp\Thievery Corporation - 2011 - Culture of Fear\07 - Tower Seven.wav

Pre-gap length 0:00:00.76

Peak level 99.9 %
Extraction speed 1.9 X
Track quality 100.0 %
Test CRC 89EC7358
Copy CRC 89EC7358
Track not present in AccurateRip database
Copy OK

Track 8

Filename C:\temp\Thievery Corporation - 2011 - Culture of Fear\08 - Is It Over.wav

Peak level 100.0 %
Extraction speed 1.8 X
Track quality 100.0 %
Test CRC 7A6644E1
Copy CRC 7A6644E1
Track not present in AccurateRip database
Copy OK

Track 9

Filename C:\temp\Thievery Corporation - 2011 - Culture of Fear\09 - False Flag Dub.wav

Pre-gap length 0:00:01.09

Peak level 100.0 %
Extraction speed 1.5 X
Track quality 99.9 %
Test CRC 8A239ACA
Copy CRC 8A239ACA
Track not present in AccurateRip database
Copy OK

Track 10

Filename C:\temp\Thievery Corporation - 2011 - Culture of Fear\10 - Safar (The Journey).wav

Pre-gap length 0:00:01.62

Peak level 100.0 %
Extraction speed 1.2 X
Track quality 99.8 %
Test CRC B3649288
Copy CRC B3649288
Track not present in AccurateRip database
Copy OK

Track 11

Filename C:\temp\Thievery Corporation - 2011 - Culture of Fear\11 - Fragments.wav

Pre-gap length 0:00:01.33

Peak level 100.0 %
Extraction speed 1.9 X
Track quality 100.0 %
Test CRC FB0A28F2
Copy CRC FB0A28F2
Track not present in AccurateRip database
Copy OK

Track 12

Filename C:\temp\Thievery Corporation - 2011 - Culture of Fear\12 - Overstand.wav

Pre-gap length 0:00:01.29

Peak level 100.0 %
Extraction speed 1.9 X
Track quality 100.0 %
Test CRC A6D8FA61
Copy CRC A6D8FA61
Track not present in AccurateRip database
Copy OK

Track 13

Filename C:\temp\Thievery Corporation - 2011 - Culture of Fear\13 - Free.wav

Peak level 100.0 %
Extraction speed 1.9 X
Track quality 100.0 %
Test CRC 859E76F6
Copy CRC 859E76F6
Track not present in AccurateRip database
Copy OK

None of the tracks are present in the AccurateRip database

No errors occurred

End of status report

==== Log checksum EAD63DB0176D1452A13E1C44D040E3EBDE2486DA94C009710295A7212992E159 ====

Этот торрент недоступен для скачивания без регистрации, однако доступен по публичной magnet-ссылке (источники с публичных трекеров). Перед использованием ссылки прочтите, пожалуйста Пользовательское соглашение, а также как можно дольше оставайтесь на раздаче! Для того, чтобы скачать сам торрент-файл (который видит больше источников), а также для того, чтобы поблагодарить релизера, вам необходимо зарегистрироваться. Если регистрироваться лень - вы можете также попробовать скачать релиз по нашим партнерским ссылкам ниже. Кроме того, зарегистрированным пользователям не показывается всплывающая реклама при скачивании.

[underverse.su].t41212.torrent
Трекер: Зарегистрирован   [ 25.06.2014 14:22 ]  

Статус: проверено (by Бишеп at 25.06.2014 15:19)
Поблагодарили: пока никто не поблагодарил...
Тип торрента: публичный - доступные источники с открытых трекеров: 
Размер: 316 MB (занимает 0,07 DVDR, для записи нужно 1 болванка DVDR/RW)
 
 
Похожие темы
Форум Тема Автор Торрент Отв. Посл. сооб.
PsyChill, Ambient Dub (Downtempo, Dub, PsyChill) D. Batistatos - After Dark (2017) [MP3, 320 kbps CBR] Darkferse
2 | 1

0 | 844

5

04.03.2017 15:25

PsyChill, Ambient Dub (Downtempo, Ambient, PsyChill) Koan - Serenity Side A (2017) [MP3, 320 kbps CBR] Darkferse
9 | 2

0 | 1053

12

11.03.2017 14:52

PsyChill, Ambient Dub (Downtempo, Psybient, PsyChill) Calicofrost - Altered States (2017) [MP3, 320 kbps CBR] Darkferse
1 | 0

0 | 793

3

20.03.2017 21:38

PsyChill, Ambient Dub (Downtempo, Psydub, World) Monkey Puzzle - The Multi-Dimensional Satchel (EP) (2016) [MP3, 320 kbps CBR] Darkferse
2 | 0

0 | 795

2

20.04.2017 10:57

PsyChill, Ambient Dub (Downtempo, PsyChill, World) Isea-N - World (2016) [MP3, 320 kbps CBR] Darkferse
3 | 0

0 | 769

1

22.04.2017 21:08

PsyChill, Ambient Dub (Downtempo, Dub) The Bitzpan - More Than Cotton (EP) (2017) [MP3, 320 kbps CBR] Darkferse
2 | 0

0 | 744

1

19.05.2017 13:56

PsyChill, Ambient Dub (Downtempo, PsyChill, Ambient) Eguana - Inevitability (2017) [MP3, 320 kbps CBR] Darkferse
1 | 0

0 | 789

5

18.09.2017 12:29

PsyChill, Ambient Dub (Downtempo, Ambient, Dub, Psychill) Shpongle - Codex VI (2017) [MP3, 320 kbps CBR] Darkferse
21 | 2

0 | 791

9

26.10.2017 22:40

PsyChill, Ambient Dub (Downtempo, Dub, Psychill) Cosmic Trigger - The Hallucinatory Mountain (2017) [MP3, 320 kbps CBR] Darkferse
1 | 0

0 | 711

5

09.12.2017 19:56

House (Downtempo, House, Leftfield) D-Pulse - Serpentine (2017) [MP3, 320 kbps CBR] Darkferse
2 | 0

0 | 1202

5

07.04.2017 22:09


Яндекс.Метрика powered by Sphinx


В Н И М А Н И Е
Сайт не распространяет и не хранит электронные версии произведений, а лишь бесплатно и без коммерческой выгоды (не требуя взамен платы,
SMS и т.д.) предоставляет доступ к создаваемому пользователями каталогу ссылок на торрент-файлы, которые содержат только списки хеш-сумм.
Убедительная просьба с жалобами обращаться напрямую к пользователю, разместившему торрент файл.

Вверх