Loading...
Error

(Electronic, Trip-hop) Blue Foundation - Sweep of Days (2004) [FLAC (Tracks+.CUE), lossless]

Статистика раздачи
Размер:  373 MB   |    Зарегистрирован:  4 года 3 месяца   |    Скачан:  4 раза

Полного источника не было: 9 дней

Сидов:  0  |  0 KB/s  ]   Личеров:  0  |  0 KB/s  ]

* - сиды/пиры с внешних источников

   
 
Автор Сообщение

ost 

26-Июн-2014 15:03

Blue Foundation - Sweep of Days

Жанр: Electronic, Trip-hop
Год выпуска: 2004
Производитель диска: Virgin Records (Denmark)
Аудиокодек: FLAC
Тип рипа: Tracks+.CUE
Битрейт аудио: lossless
Продолжительность: 01:00:47

Треклист:

01. History (00:57)
02. As I Moved On (04:01)
03. End of The Day (Silence) (04:04)
04. Ricochet (06:01)
05. 02.17 AM (03:01)
06. Embers (05:27)
07. Bonfires (04:15)
08. The Yellow Man (03:37)
09. Shine (04:47)
10. Save This Town (03:39)
11. Sweep (10:53)
12. My Day (09:58)
REM GENRE Electronic
REM DATE 2004
REM DISCID AD11560D
REM COMMENT "ExactAudioCopy v0.99pb4"
FILE "01 - History.wav" WAVE
TRACK 01 AUDIO
INDEX 01 00:00:00
FILE "02 - As I Moved On.wav" WAVE
TRACK 02 AUDIO
INDEX 01 00:00:00
TRACK 03 AUDIO
INDEX 00 03:59:15
FILE "03 - End of The Day (Silence).wav" WAVE
INDEX 01 00:00:00
FILE "04 - Ricochet.wav" WAVE
TRACK 04 AUDIO
INDEX 01 00:00:00
FILE "05 - 02.17 AM.wav" WAVE
TRACK 05 AUDIO
INDEX 01 00:00:00
FILE "06 - Embers.wav" WAVE
TRACK 06 AUDIO
INDEX 01 00:00:00
FILE "07 - Bonfires.wav" WAVE
TRACK 07 AUDIO
INDEX 01 00:00:00
FILE "08 - The Yellow Man.wav" WAVE
TRACK 08 AUDIO
INDEX 01 00:00:00
FILE "09 - Shine.wav" WAVE
TRACK 09 AUDIO
INDEX 01 00:00:00
FILE "10 - Save This Town.wav" WAVE
TRACK 10 AUDIO
INDEX 01 00:00:00
FILE "11 - Sweep.wav" WAVE
TRACK 11 AUDIO
INDEX 01 00:00:00
FILE "12 - My Day.wav" WAVE
TRACK 12 AUDIO
INDEX 01 00:00:00
TRACK 13 MODEx/2xxx
INDEX 00 09:58:45

Exact Audio Copy V0.99 prebeta 4 from 23. January 2008

EAC extraction logfile from 7. April 2009, 16:30

Blue Foundation / Sweep of Days

Used drive : HL-DT-STDVDRAM GSA-T20L Adapter: 0 ID: 0

Read mode : Secure
Utilize accurate stream : Yes
Defeat audio cache : Yes
Make use of C2 pointers : No

Read offset correction : 667
Overread into Lead-In and Lead-Out : No
Fill up missing offset samples with silence : Yes
Delete leading and trailing silent blocks : No
Null samples used in CRC calculations : Yes
Used interface : Native Win32 interface for Win NT & 2000
Gap handling : Appended to previous track

Used output format : User Defined Encoder
Selected bitrate : 128 kBit/s
Quality : High
Add ID3 tag : No
Command line compressor : C:\Program Files\Exact Audio Copy\Flac\flac.exe
Additional command line options : -V -8 -T "artist=%a" -T "title=%t" -T "album=%g" -T "date=%y" -T "tracknumber=%n" -T "genre=%m" %s

TOC of the extracted CD

Track | Start | Length | Start sector | End sector
---------------------------------------------------------
1 | 0:00.00 | 0:57.22 | 0 | 4296
2 | 0:57.22 | 4:01.69 | 4297 | 22440
3 | 4:59.16 | 4:04.70 | 22441 | 40810
4 | 9:04.11 | 6:01.39 | 40811 | 67924
5 | 15:05.50 | 3:01.44 | 67925 | 81543
6 | 18:07.19 | 5:27.61 | 81544 | 106129
7 | 23:35.05 | 4:15.47 | 106130 | 125301
8 | 27:50.52 | 3:37.27 | 125302 | 141603
9 | 31:28.04 | 4:47.28 | 141604 | 163156
10 | 36:15.32 | 3:39.38 | 163157 | 179619
11 | 39:54.70 | 10:53.74 | 179620 | 228668
12 | 50:48.69 | 9:58.45 | 228669 | 273563
13 | 63:19.39 | 10:38.36 | 284964 | 332849

Track 1

Filename C:\EACrips\Blue Foundation - 2004 - Sweep of Days\01 - History.wav

Pre-gap length 0:00:02.00

Peak level 100.0 %
Track quality 100.0 %
Test CRC 90748F6D
Copy CRC 90748F6D
Accurately ripped (confidence 2) [C5B823AB]
Copy OK

Track 2

Filename C:\EACrips\Blue Foundation - 2004 - Sweep of Days\02 - As I Moved On.wav

Peak level 100.0 %
Track quality 100.0 %
Test CRC 52AC74E2
Copy CRC 52AC74E2
Accurately ripped (confidence 2) [B0998503]
Copy OK

Track 3

Filename C:\EACrips\Blue Foundation - 2004 - Sweep of Days\03 - End of The Day (Silence).wav

Pre-gap length 0:00:02.72

Peak level 100.0 %
Track quality 100.0 %
Test CRC 0A9C0CF4
Copy CRC 0A9C0CF4
Accurately ripped (confidence 2) [832BFB14]
Copy OK

Track 4

Filename C:\EACrips\Blue Foundation - 2004 - Sweep of Days\04 - Ricochet.wav

Peak level 100.0 %
Track quality 100.0 %
Test CRC CA2E8823
Copy CRC CA2E8823
Accurately ripped (confidence 2) [A1F7D92B]
Copy OK

Track 5

Filename C:\EACrips\Blue Foundation - 2004 - Sweep of Days\05 - 02.17 AM.wav

Peak level 100.0 %
Track quality 100.0 %
Test CRC EDB052AE
Copy CRC EDB052AE
Accurately ripped (confidence 3) [5D534225]
Copy OK

Track 6

Filename C:\EACrips\Blue Foundation - 2004 - Sweep of Days\06 - Embers.wav

Peak level 100.0 %
Track quality 100.0 %
Test CRC 3E7432D2
Copy CRC 3E7432D2
Accurately ripped (confidence 2) [DFFC8CDE]
Copy OK

Track 7

Filename C:\EACrips\Blue Foundation - 2004 - Sweep of Days\07 - Bonfires.wav

Peak level 100.0 %
Track quality 100.0 %
Test CRC 914D3F32
Copy CRC 914D3F32
Accurately ripped (confidence 3) [4E76535F]
Copy OK

Track 8

Filename C:\EACrips\Blue Foundation - 2004 - Sweep of Days\08 - The Yellow Man.wav

Peak level 100.0 %
Track quality 100.0 %
Test CRC FF6F1F63
Copy CRC FF6F1F63
Accurately ripped (confidence 3) [5CCDB380]
Copy OK

Track 9

Filename C:\EACrips\Blue Foundation - 2004 - Sweep of Days\09 - Shine.wav

Peak level 99.5 %
Track quality 100.0 %
Test CRC 579FD90F
Copy CRC 579FD90F
Accurately ripped (confidence 2) [62ADC217]
Copy OK

Track 10

Filename C:\EACrips\Blue Foundation - 2004 - Sweep of Days\10 - Save This Town.wav

Peak level 100.0 %
Track quality 99.9 %
Test CRC 1E0E7565
Copy CRC 1E0E7565
Accurately ripped (confidence 3) [DC5FD490]
Copy OK

Track 11

Filename C:\EACrips\Blue Foundation - 2004 - Sweep of Days\11 - Sweep.wav

Peak level 100.0 %
Track quality 100.0 %
Test CRC 3BEDE24D
Copy CRC 3BEDE24D
Accurately ripped (confidence 2) [7D002E5E]
Copy OK

Track 12

Filename C:\EACrips\Blue Foundation - 2004 - Sweep of Days\12 - My Day.wav

Peak level 100.0 %
Track quality 100.0 %
Test CRC BDDCD777
Copy CRC BDDCD777
Accurately ripped (confidence 3) [BBBBF0A0]
Copy OK

All tracks accurately ripped

No errors occurred

End of status report

Этот торрент недоступен для скачивания без регистрации, однако доступен по публичной magnet-ссылке (источники с публичных трекеров). Перед использованием ссылки прочтите, пожалуйста Пользовательское соглашение, а также как можно дольше оставайтесь на раздаче! Для того, чтобы скачать сам торрент-файл (который видит больше источников), а также для того, чтобы поблагодарить релизера, вам необходимо зарегистрироваться. Если регистрироваться лень - вы можете также попробовать скачать релиз по нашим партнерским ссылкам ниже. Кроме того, зарегистрированным пользователям не показывается всплывающая реклама при скачивании.

[underverse.su].t41236.torrent
Трекер: Зарегистрирован   [ 26.06.2014 15:03 ]  

Статус: проверено (by Бишеп at 26.06.2014 15:44)
Поблагодарили: 1 человек
Тип торрента: публичный - доступные источники с открытых трекеров: 
Размер: 373 MB (занимает 0,08 DVDR, для записи нужно 1 болванка DVDR/RW)
 
 
Похожие темы
Форум Тема Автор Торрент Отв. Посл. сооб.
Музыкальные DVD (Electronic) Jean Michel Jare - Aero (2004) [DVD-Audio, 5.1 DTS, 5.1 Dolby Digital (2.0-совместимый даунмикс)] 8ad_R060d
7 | 0

0 | 2764

30

19.03.2014 14:24

Зарубежная Pop Музыка (Electronic, Pop) Marian Hill - ACT ONE (The Complete Collection) (2017) [MP3, 320 kbps CBR] Darkferse
10 | 3

1 | 1151

5

31.05.2017 13:55

Зарубежная Pop Музыка (Electronic, House, Dance, Pop) Madonna - Bitch I'm Madonna (The Remixes) (2015) [MP3, 320 kbps] 90ytr90
5 | 0

0 | 665

2

08.11.2016 07:41

Зарубежная Pop Музыка (Electronic, Synth-pop) a-ha - Cast In Steel [Vinyl Rip] (2015) [MP3, 320 kbps] 90ytr90
10 | 0

0 | 727

2

06.11.2016 12:26

Зарубежная Pop Музыка (Electronic, Pop, Dance) The Knocks - 55 (2016) [MP3, 320 kbps] 90ytr90
3 | 0

0 | 618

3

06.11.2016 10:41

Зарубежная Pop Музыка (Electronic, Dubstep, Drumstep) KillSonik (ex-Chasing Shadows) - Discograhpy (2 EP, Remixes WEB 2011-2013) [MP3, 320 kbps CBR] 8ad_R060d
3 | 1

0 | 1584

7

20.01.2014 10:11

Зарубежная Pop Музыка (Electronic Rock, Pop) Porcelain Black - Mannequin Factory (2015) [MP3, 320 kbps] 90ytr90
2 | 0

0 | 1155

11

11.03.2015 20:43

Зарубежная Pop Музыка (Electronic, Indie Pop) Sia - The Spotify Sessions [EP] (2017) [MP3, 320 kbps CBR] 90ytr90
34 | 1

0 | 437

6

08.04.2018 07:08

Зарубежная Pop Музыка (Electronic, House, Techno) Moby - Go-the very best of Moby (Japan) (2006) [MP3, 320 kbps CBR] 90ytr90
11 | 0

0 | 517

9

08.04.2018 10:44

Зарубежная Pop Музыка (Electronic, Dance, Alternative, Pop) Tracey Thorn - Record (2018) [MP3, 320 kbps CBR] 90ytr90
21 | 8

0 | 387

4

08.04.2018 13:05


Яндекс.Метрика powered by Sphinx


В Н И М А Н И Е
Сайт не распространяет и не хранит электронные версии произведений, а лишь бесплатно и без коммерческой выгоды (не требуя взамен платы,
SMS и т.д.) предоставляет доступ к создаваемому пользователями каталогу ссылок на торрент-файлы, которые содержат только списки хеш-сумм.
Убедительная просьба с жалобами обращаться напрямую к пользователю, разместившему торрент файл.

Вверх