Loading...
Error

Салем / Salem / Сезон 1 / Серии: 1-13 из 13 (Ричард Шепард) [2014 г., Фантастика, Драма, Триллер, WEB-DLRip 720p] MVO (RUS, LostFilm)

Статистика раздачи
Размер:  17,33 GB   |    Зарегистрирован:  4 года 5 месяцев   |    Скачан:  14 раз

Полного источника не было: 1 год 9 месяцев

Сидов:  0  |  0 KB/s  ]   Личеров:  0  |  0 KB/s  ]

* - сиды/пиры с внешних источников

   
 
Автор Сообщение

Ведьмочка Пол:Жен

01-Июл-2014 02:22








САЛЕМ / SALEM
«Ведьмы среди нас»



Страна: США
Год выпуска: 2014
Жанр: Фантастика, Драма, Триллер
Продолжительность: ~00:55:00 серия
Режиссёр: Ричард Шепард
В ролях: Шэйн Уэст, Джанет Монтгомери, Сет Гейбл, Тэмзин Мёрчант, Эшли Мадекве, Элиз Эберли, Иддо Голдберг, Ксандер Беркли, Лара Грайс, Сэмми Ханратти

Сюжет фильма:
Сюжет сериала закручен вокруг отважного ветерана войны, который возвращается с полей сражений в родной Салем. Добравшись до родных мест, мужчина обнаруживает, что все местное население охвачено безумием охоты на «ведьм».

Озвучивание:
  • Профессиональный, Многоголосный, Русский [LostFilm]

Качество видео: WEB-DLRip 720p
Формат: MP4
Видео: AVC, 1280x720 (16:9), 23.976 fps, 4000 Кбит/сек
Аудио: AAC (LC), 128 Кбит/сек, 2 Канала, 48.0 КГц

Rip by:




1. Обещание / The Vow
2. Каменное дитя / The Stone Child
3. Напрасно / In Vain
4. Выжившие / Survivors
5. Ложь / Lies
6. Шиповник и алая роза / The Red Rose and the Briar
7. Собственная Америка / Our Own Private America
8. Отправная точка / Departures
9. Бойтесь, дети! / Children, Be Afraid!
10. Дом боли / The House of Pain
11. Кошки-мышки / Cat and Mouse
12. Пепел / Ashes, Ashes
13. Всё рушится / All Fall Down


Общее
Полное имя : \Салем.(S01).720p.LF\Salem.S01E13.720p.WEB.rus.LostFilm.TV.mp4
Формат : MPEG-4
Профиль формата : Base Media
Идентификатор кодека : isom
Размер файла : 1,34 Гбайт
Продолжительность : 45 м.
Режим общего битрейта : Переменный
Общий поток : 4235 Кбит/сек
Коллекция : Салем
Сезон : 1
Альбом : Салем, Сезон 1
Альбом/Исполнитель : Салем
Часть : 13
Часть/Положение : 1
Трек : Всё рушится
Трек/Положение : 13
Исполнитель : Салем
Жанр : Sci-Fi & Fantasy
Тип содержимого : TV Show
Дата записи : 2014
Дата кодирования : UTC 2014-07-15 17:13:01
Дата пометки : UTC 2014-07-15 17:13:01
Программа кодирования : Yamb 2.1.0.0 [http://yamb.unite-video.com] / LostCoder
Правообладатель : LostFilm.TV (c)
Обложка : Yes
Примечание : В Салем после семи лет отсутствия возвращается ветеран войны Джон Олден. Город сильно изменился. Теперь здесь хозяйничают ведьмы, держащие в страхе горожан. Бывшая возлюбленная Джона теперь богатая домовладелица и скрывает какую-то тайну.
Part_ID : 113

Видео
Идентификатор : 1
Формат : AVC
Формат/Информация : Advanced Video Codec
Профиль формата : High@L3.1
Параметр CABAC формата : Нет
Параметр ReFrames формата : 2 кадра
Идентификатор кодека : avc1
Идентификатор кодека/Информация : Advanced Video Coding
Продолжительность : 45 м.
Битрейт : 4000 Кбит/сек
Максимальный битрейт : 13,3 Мбит/сек
Ширина : 1280 пикселей
Высота : 720 пикселей
Соотношение сторон : 16:9
Режим частоты кадров : Переменный
Частота кадров : 23,976 кадра/сек
Минимальная частота кадров : 23,974 кадра/сек
Максимальная частота кадров : 23,981 кадра/сек
Цветовое пространство : YUV
Субдискретизация насыщенности : 4:2:0
Битовая глубина : 8 бит
Тип развёртки : Прогрессивная
Бит/(Пиксели*Кадры) : 0.181
Размер потока : 1,29 Гбайт (97%)
Библиотека кодирования : x264 core 112 r1834 a51816a
Настройки программы : cabac=0 / ref=3 / deblock=1:0:0 / analyse=0x1:0x111 / me=hex / subme=7 / psy=1 / psy_rd=1.00:0.00 / mixed_ref=1 / me_range=16 / chroma_me=1 / trellis=1 / 8x8dct=0 / cqm=0 / deadzone=21,11 / fast_pskip=1 / chroma_qp_offset=-2 / threads=6 / sliced_threads=0 / nr=0 / decimate=1 / interlaced=0 / constrained_intra=0 / bframes=3 / b_pyramid=2 / b_adapt=1 / b_bias=0 / direct=1 / weightb=1 / open_gop=0 / weightp=2 / keyint=250 / keyint_min=25 / scenecut=40 / intra_refresh=0 / rc_lookahead=40 / rc=abr / mbtree=1 / bitrate=4000 / ratetol=1.0 / qcomp=0.60 / qpmin=0 / qpmax=51 / qpstep=4 / vbv_maxrate=5000 / vbv_bufsize=2000 / ip_ratio=1.40 / aq=1:1.00 / nal_hrd=none
Язык : English
Дата пометки : UTC 2014-07-15 17:15:10
Основные цвета : BT.709
Характеристики трансфера : BT.709
Коэффициенты матрицы : BT.709
colour_range : Limited

Аудио
Идентификатор : 2
Формат : AAC
Формат/Информация : Advanced Audio Codec
Профиль формата : LC
Идентификатор кодека : 40
Продолжительность : 45 м.
Вид битрейта : Переменный
Битрейт : 128 Кбит/сек
Максимальный битрейт : 210 Кбит/сек
Каналы : 2 канала
Расположение каналов : Front: L R
Частота : 48,0 КГц
Метод сжатия : С потерями
Размер потока : 41,4 Мбайт (3%)
Дата кодирования : UTC 2014-07-15 17:15:07
Дата пометки : UTC 2014-07-15 17:15:10


picpicpic
picpicpic
picpicpic
Для увеличения картинки щелкните мышкой по превью

Этот торрент недоступен для скачивания без регистрации, однако доступен по публичной magnet-ссылке (источники с публичных трекеров). Перед использованием ссылки прочтите, пожалуйста Пользовательское соглашение, а также как можно дольше оставайтесь на раздаче! Для того, чтобы скачать сам торрент-файл (который видит больше источников), а также для того, чтобы поблагодарить релизера, вам необходимо зарегистрироваться. Если регистрироваться лень - вы можете также попробовать скачать релиз по нашим партнерским ссылкам ниже. Кроме того, зарегистрированным пользователям не показывается всплывающая реклама при скачивании.

[underverse.su].t41390.torrent
Трекер: Зарегистрирован   [ 19.07.2014 21:54 ]  

Статус: проверено (by Ведьмочка at 19.07.2014 21:54)
Поблагодарили: 1 человек
Тип торрента: публичный - доступные источники с открытых трекеров: 
Размер: 17,33 GB (занимает 3,96 DVDR, для записи нужно 4 болванки DVDR/RW)
 
 
Похожие темы
Форум Тема Автор Торрент Отв. Посл. сооб.
Зарубежные сериалы Салем / Salem / Сезон 2 / Серии: 1-13 из 13 (Ричард Шепард) [2015 г., Фантастика, Драма, Триллер, WEB-DLRip] MVO (RUS, LostFilm) Ведьмочка
6 | 3

0 | 2448

9

16.04.2015 10:52

Зарубежные сериалы [BD / Remux / BDRip / WEB-DL / HDTV 1080/720р] Салем / Salem / Сезон: 1 / Серии: 1-13 (13) (Ричард Шепард) [2014, драма, триллер, фантастика, WEB-DL 1080p] MVO (AlexFilm) uzi2009
2 | 0

0 | 1794

5

13.08.2014 05:46



Последний раз редактировалось: Ведьмочка (19.07.2014 21:54), всего редактировалось 5 раз(а)

Яндекс.Метрика powered by Sphinx


В Н И М А Н И Е
Сайт не распространяет и не хранит электронные версии произведений, а лишь бесплатно и без коммерческой выгоды (не требуя взамен платы,
SMS и т.д.) предоставляет доступ к создаваемому пользователями каталогу ссылок на торрент-файлы, которые содержат только списки хеш-сумм.
Убедительная просьба с жалобами обращаться напрямую к пользователю, разместившему торрент файл.

Вверх