Loading...
Error

(Neo Classical) Tarja Turunen & Mike Terrana - Beauty & The Beat (2CD) (2014) [FLAC (Image+.CUE), Lossless]

Статистика раздачи
Размер:  696 MB   |    Зарегистрирован:  4 года 4 месяца   |    Скачан:  14 раз

Полного источника не было: 2 часа 11 минут

Сидов:  0  |  0 KB/s  ]   Личеров:  0  |  0 KB/s  ]

* - сиды/пиры с внешних источников

   
 
Автор Сообщение

Бишеп Пол:Муж

03-Авг-2014 04:47

Tarja Turunen & Mike Terrana - Beauty & The Beat

Жанр: Neo Classical
Год выпуска: 2014
Производитель диска: Ear Music - 0208831ERE
Аудиокодек: FLAC
Тип рипа: Image+.CUE
Битрейт аудио: Lossless
Продолжительность: 01:38:02
Треклист:
Треклист:
01. Concert For Violin & Oboe (Bach)
02. Blute Nur (Bach)
03. Zueignung - Op. 10, No. 1 (Strauss)
04. Barber Of Seville (Rossini)
05. New World Symphony (Dvorsak)
06. Song To The Moon (Dvorak)
07. Vilja Lied (Lehar)
08. O Mio Babbino Caro (Puccini)
09. Can-Can (Offenbach)
10. I Feel Pretty (Leonard Bernstein)
11. William Tell Overture (Rossini)
12. Mein Herr Marquis (Strauss)
13. Eine Kleine Nachtmusik (Mozart)

Exact Audio Copy V1.0 beta 3 from 29. August 2011

EAC extraction logfile from 29. June 2014, 22:49

Tarja Turunen & Mike Terrana / Beauty & the Beat CD1

Used drive : PLEXTOR BD-R PX-B940SA Adapter: 5 ID: 0

Read mode : Secure
Utilize accurate stream : Yes
Defeat audio cache : Yes
Make use of C2 pointers : No

Read offset correction : 667
Overread into Lead-In and Lead-Out : No
Fill up missing offset samples with silence : Yes
Delete leading and trailing silent blocks : No
Null samples used in CRC calculations : Yes
Used interface : Installed external ASPI interface

Used output format : User Defined Encoder
Selected bitrate : 128 kBit/s
Quality : High
Add ID3 tag : Yes
Command line compressor : G:\Program Files (x86)\Exact Audio Copy\Flac\flac.exe
Additional command line options : -V -8 -T "Date=%year%" -T "Genre=%genre%" %source%

TOC of the extracted CD

Track | Start | Length | Start sector | End sector
---------------------------------------------------------
1 | 0:00.00 | 3:44.26 | 0 | 16825
2 | 3:44.26 | 4:57.74 | 16826 | 39174
3 | 8:42.25 | 2:01.62 | 39175 | 48311
4 | 10:44.12 | 5:39.15 | 48312 | 73751
5 | 16:23.27 | 3:14.28 | 73752 | 88329
6 | 19:37.55 | 5:49.07 | 88330 | 114511
7 | 25:26.62 | 6:32.55 | 114512 | 143966
8 | 31:59.42 | 2:34.04 | 143967 | 155520
9 | 34:33.46 | 2:30.69 | 155521 | 166839
10 | 37:04.40 | 2:39.38 | 166840 | 178802
11 | 39:44.03 | 3:40.56 | 178803 | 195358
12 | 43:24.59 | 3:55.29 | 195359 | 213012
13 | 47:20.13 | 5:59.14 | 213013 | 239951

Range status and errors

Selected range

Filename D:\MUSIC\Tarja Turunen & Mike Terrana - Beauty & the Beat CD1.wav

Peak level 100.0 %
Extraction speed 4.9 X
Range quality 100.0 %
Test CRC 9B93B8D7
Copy CRC 9B93B8D7
Copy OK

No errors occurred

AccurateRip summary
Track 1 not present in database
Track 2 not present in database
Track 3 not present in database
Track 4 not present in database
Track 5 not present in database
Track 6 not present in database
Track 7 not present in database
Track 8 not present in database
Track 9 not present in database
Track 10 not present in database
Track 11 not present in database
Track 12 not present in database
Track 13 not present in database
None of the tracks are present in the AccurateRip database

End of status report

==== Log checksum F316BDE28B23F89F867FAFFFFCBD80D40EFD1D4C47E08E3D5E862389440F1A32 ====

Треклист:
01. You Take My Breath Away (Queen)
02. The Reign (Tarja)
03. Witch-Hunt (Tarja)
04. Led Zeppelin Medley
05. Swanheart (Nightwish)
06. Fly Me To The Moon (Frank Sinatra)
07. Into The Sun (Tarja)
08. I Walk Alone (Tarja)

Exact Audio Copy V1.0 beta 3 from 29. August 2011

EAC extraction logfile from 29. June 2014, 22:17

Tarja Turunen & Mike Terrana / Beauty & The Beat CD2

Used drive : PLEXTOR BD-R PX-B940SA Adapter: 5 ID: 0

Read mode : Secure
Utilize accurate stream : Yes
Defeat audio cache : Yes
Make use of C2 pointers : No

Read offset correction : 667
Overread into Lead-In and Lead-Out : No
Fill up missing offset samples with silence : Yes
Delete leading and trailing silent blocks : No
Null samples used in CRC calculations : Yes
Used interface : Installed external ASPI interface

Used output format : User Defined Encoder
Selected bitrate : 128 kBit/s
Quality : High
Add ID3 tag : Yes
Command line compressor : G:\Program Files (x86)\Exact Audio Copy\Flac\flac.exe
Additional command line options : -V -8 -T "Date=%year%" -T "Genre=%genre%" %source%

TOC of the extracted CD

Track | Start | Length | Start sector | End sector
---------------------------------------------------------
1 | 0:00.00 | 4:49.52 | 0 | 21726
2 | 4:49.52 | 5:48.10 | 21727 | 47836
3 | 10:37.62 | 6:00.13 | 47837 | 74849
4 | 16:38.00 | 8:05.23 | 74850 | 111247
5 | 24:43.23 | 5:39.15 | 111248 | 136687
6 | 30:22.38 | 2:42.37 | 136688 | 148874
7 | 33:05.00 | 6:51.00 | 148875 | 179699
8 | 39:56.00 | 4:46.57 | 179700 | 201206

Range status and errors

Selected range

Filename D:\MUSIC\Tarja Turunen & Mike Terrana - Beauty & The Beat CD2.wav

Peak level 100.0 %
Extraction speed 4.7 X
Range quality 100.0 %
Test CRC F761FC6C
Copy CRC F761FC6C
Copy OK

No errors occurred

AccurateRip summary
Track 1 not present in database
Track 2 not present in database
Track 3 not present in database
Track 4 not present in database
Track 5 not present in database
Track 6 not present in database
Track 7 not present in database
Track 8 not present in database
None of the tracks are present in the AccurateRip database

End of status report

==== Log checksum 0038A07A48F90C67C5A171DD0D8AB6E1711B1981F4965289D042F345935BF14C ====

Этот торрент недоступен для скачивания без регистрации, однако доступен по публичной magnet-ссылке (источники с публичных трекеров). Перед использованием ссылки прочтите, пожалуйста Пользовательское соглашение, а также как можно дольше оставайтесь на раздаче! Для того, чтобы скачать сам торрент-файл (который видит больше источников), а также для того, чтобы поблагодарить релизера, вам необходимо зарегистрироваться. Если регистрироваться лень - вы можете также попробовать скачать релиз по нашим партнерским ссылкам ниже. Кроме того, зарегистрированным пользователям не показывается всплывающая реклама при скачивании.

[underverse.su].t42293.torrent
Трекер: Зарегистрирован   [ 03.08.2014 04:47 ]  

Статус: проверено (by Бишеп at 03.08.2014 04:47)
Поблагодарили: 1 человек
Тип торрента: публичный - доступные источники с открытых трекеров: 
Размер: 696 MB (занимает 0,16 DVDR, для записи нужно 1 болванка DVDR/RW)
 
 
Похожие темы
Форум Тема Автор Торрент Отв. Посл. сооб.
Зарубежный Black, Death, Heavy, Thrash, Power, Folk, Gothic Metal (Neo Classical Metal, Progressive Metal) Mistheria - Gemini (2017) [MP3, 320 kbps CBR] Darkferse
5 | 3

0 | 405

4

14.12.2017 19:42

Зарубежный Heavy, Thrash, Extreme (Lossless) (Neo Classical, Symphonic Metal) Sage's Recital - Sage's Recital (2013) [FLAC (Image+.CUE), Lossless] Бишеп
2 | 1

1 | 911

4

25.01.2014 08:52


Яндекс.Метрика powered by Sphinx


В Н И М А Н И Е
Сайт не распространяет и не хранит электронные версии произведений, а лишь бесплатно и без коммерческой выгоды (не требуя взамен платы,
SMS и т.д.) предоставляет доступ к создаваемому пользователями каталогу ссылок на торрент-файлы, которые содержат только списки хеш-сумм.
Убедительная просьба с жалобами обращаться напрямую к пользователю, разместившему торрент файл.

Вверх