Loading...
Error

Салем / Salem / Сезон: 1 / Серии: 1-13 (13) (Ричард Шепард) [2014, драма, триллер, фантастика, WEB-DL 1080p] MVO (AlexFilm)

Статистика раздачи
Размер:  23,13 GB   |    Зарегистрирован:  4 года 5 месяцев   |    Скачан:  5 раз

Полного источника не было: 1 год 6 месяцев

Сидов:  0  |  0 KB/s  ]   Личеров:  0  |  0 KB/s  ]

* - сиды/пиры с внешних источников

   
 
Автор Сообщение

uzi2009 Пол:Муж

13-Авг-2014 05:46


Салем / Salem
1 сезон


Год выпуска: 2014
Страна: США
Жанр: драма, триллер, фантастика
Продолжительность: 13 х ~44-52 мин
Перевод: профессиональный многоголосый закадровый (AlexFilm)
Субтитры: нет
Режиссеры: Ричард Шепард

В ролях: Шэйн Уэст, Джанет Монтгомери, Эжур Дэун, Моргана Шоу, Сет Гейбл, Ксандер Беркли, Эшли Мадекве, Элиз Эберли, Джон Артур, Кристофер Берри...
Описание: Сериал раскрывает темную, сверхъестественную правду о Салеме — «городе ведьм». В центре сериала «Салем» — эпическая любовная драма в контексте позорного периода кровожадных судов над ведьмами в Америке. Это совершенно новый взгляд на Салем и более чем смелый взгляд на ведьм. Главный герой сериала — Джон Олден — красивый, жесткий, прагматичный ветеран, закаленный десятью годами на войне и побывавший в плену у индейцев. Он возвращается в родной город Салем и оказывается вовлеченным в жестокую охоту на ведьм.
Релиз:

Перевод: Doctor Joker и MartinaG
Монтаж и сведение звука: Михаил Шорыгин (1, 5, 13), Сергей Мартынов (2-4, 6-12)
Роли озвучивали:

Ирина Воронова

Александр Воронов

Михаил Суслов

Сергей Пономарёв

Владимир Курдов

Качество: WEB-DL 1080p
Формат: MKV
Видео кодек: H.264
Аудио кодек: AC3
Видео: 1920x1080 (16:9), 23.976 fps, MPEG-4 AVC ~4700 kbps avg, 0.094 bit/pixel
Аудио Rus: 48 kHz, AC3 Dolby Digital, 3/2 (L,C,R,l,r) + LFE ch, ~384.00 kbps avg
Аудио Eng: 48 kHz, AC3 Dolby Digital, 3/2 (L,C,R,l,r) + LFE ch, ~384.00 kbps avg
pic pic pic pic
Format : Matroska
Format version : Version 4 / Version 2
File size : 2.03 GiB
Duration : 52mn 18s
Overall bit rate : 5 548 Kbps
Encoded date : UTC 2014-04-23 18:39:32
Writing application : mkvmerge v6.6.0 ('The Edge Of The In Between') built on Dec 1 2013 17:55:00
Writing library : libebml v1.3.0 + libmatroska v1.4.1

Video
ID : 1
Format : AVC
Format/Info : Advanced Video Codec
Format profile : High@L4.0
Format settings, CABAC : Yes
Format settings, ReFrames : 4 frames
Codec ID : V_MPEG4/ISO/AVC
Duration : 52mn 18s
Bit rate : 4 670 Kbps
Width : 1 920 pixels
Height : 1 080 pixels
Display aspect ratio : 16:9
Frame rate mode : Constant
Frame rate : 23.976 fps
Color space : YUV
Chroma subsampling : 4:2:0
Bit depth : 8 bits
Scan type : Progressive
Bits/(Pixel*Frame) : 0.094
Stream size : 1.71 GiB (84%)
Language : English
Default : Yes
Forced : No
Color primaries : BT.709
Transfer characteristics : BT.709
Matrix coefficients : BT.709

Audio #1
ID : 2
Format : AC-3
Format/Info : Audio Coding 3
Mode extension : CM (complete main)
Format settings, Endianness : Big
Codec ID : A_AC3
Duration : 52mn 18s
Bit rate mode : Constant
Bit rate : 384 Kbps
Channel(s) : 6 channels
Channel positions : Front: L C R, Side: L R, LFE
Sampling rate : 48.0 KHz
Bit depth : 16 bits
Compression mode : Lossy
Stream size : 144 MiB (7%)
Title : DD5.1 AlexFilm
Language : Russian
Default : Yes
Forced : No

Audio #2
ID : 3
Format : AC-3
Format/Info : Audio Coding 3
Mode extension : CM (complete main)
Format settings, Endianness : Big
Codec ID : A_AC3
Duration : 52mn 18s
Bit rate mode : Constant
Bit rate : 384 Kbps
Channel(s) : 6 channels
Channel positions : Front: L C R, Side: L R, LFE
Sampling rate : 48.0 KHz
Bit depth : 16 bits
Compression mode : Lossy
Stream size : 144 MiB (7%)
Title : DD5.1 Original
Language : English
Default : No
Forced : No

Этот торрент недоступен для скачивания без регистрации, однако доступен по публичной magnet-ссылке (источники с публичных трекеров). Перед использованием ссылки прочтите, пожалуйста Пользовательское соглашение, а также как можно дольше оставайтесь на раздаче! Для того, чтобы скачать сам торрент-файл (который видит больше источников), а также для того, чтобы поблагодарить релизера, вам необходимо зарегистрироваться. Если регистрироваться лень - вы можете также попробовать скачать релиз по нашим партнерским ссылкам ниже. Кроме того, зарегистрированным пользователям не показывается всплывающая реклама при скачивании.

[underverse.su].t42667.torrent
Трекер: Зарегистрирован   [ 13.08.2014 05:46 ]  

Статус: проверено (by Ведьмочка at 13.08.2014 05:56)
Поблагодарили: пока никто не поблагодарил...
Тип торрента: публичный - доступные источники с открытых трекеров: 
Размер: 23,13 GB (занимает 5,28 DVDR, для записи нужно 6 болванок DVDR/RW)
 
 
Похожие темы
Форум Тема Автор Торрент Отв. Посл. сооб.
Зарубежные сериалы Салем / Salem / Сезон 2 / Серии: 1-13 из 13 (Ричард Шепард) [2015 г., Фантастика, Драма, Триллер, WEB-DLRip] MVO (RUS, LostFilm) Ведьмочка
6 | 3

0 | 2448

9

16.04.2015 10:52

Зарубежные сериалы [BD / Remux / BDRip / WEB-DL / HDTV 1080/720р] Салем / Salem / Сезон 1 / Серии: 1-13 из 13 (Ричард Шепард) [2014 г., Фантастика, Драма, Триллер, WEB-DLRip 720p] MVO (RUS, LostFilm) Ведьмочка
1 | 0

0 | 2951

14

01.07.2014 02:22


Яндекс.Метрика powered by Sphinx


В Н И М А Н И Е
Сайт не распространяет и не хранит электронные версии произведений, а лишь бесплатно и без коммерческой выгоды (не требуя взамен платы,
SMS и т.д.) предоставляет доступ к создаваемому пользователями каталогу ссылок на торрент-файлы, которые содержат только списки хеш-сумм.
Убедительная просьба с жалобами обращаться напрямую к пользователю, разместившему торрент файл.

Вверх