Loading...
Error

Девочки Гилмор / Дамы семьи Гилмор / Gilmore Girls / Сезон 7 / Серии 1-22 (22) (Эми Шерман) [2006, драма, семейный, комедия, WEB-DL 720p] DVO (Rus, Diva Universal) + Original (Eng)

Статистика раздачи
Размер:  28,74 GB   |    Зарегистрирован:  4 года 7 месяцев   |    Скачан:  1 раз

Полного источника не было: 4 года 6 месяцев

Сидов:  0  |  0 KB/s  ]   Личеров:  0  |  0 KB/s  ]

* - сиды/пиры с внешних источников

   
 
Автор Сообщение

uzi2009 Пол:Муж

13-Авг-2014 06:08

Девочки Гилмор / Gilmore Girls / Сезон 7

Год выпуска: 2006
Страна: США
Жанр: драма, семейный, комедия
Продолжительность: ~ 40 мин.
Перевод: профессиональный двухголосый закадровый
Субтитры: отсутствуют
Режиссёр: Эми Шерман
В ролях: Лорен Грэм, Алексис Бледел, Мелисса МакКарти, Кейко Агена, Скотт Паттерсон, Яник Труздэйл, Джаред Падалецки, Лиза Уэйл, Эдвард Геррманн, Кэйли Бишоп
Описание: Добро пожаловать в Старз Холлоу! Маленький живописный городок находящийся неподалёку от Гарварда. С населением всего в девять тысяч человек, одним отелем, маленькими магазинчиками, несколькими ресторанами, средней школой, танцевальной студией, видео салоном и единственным в городе... светофором. Здесь и протекает жизнь одинокой молодой мамы и её дочери. Хотя на первый взгляд их можно принять за сестёр. Они лучшие подруги разделяют практически всё от взглядов на мир до вкусов на еду, музыку и кино. Картинка из жизни Лорелай и Рори очень насыщенная, непредсказуема и неординарна. И будьте уверены в том, что с Девочками Гилмор вам никогда не будет скучно!
Качество: WEB-DL 720p | iTunes
Формат: MKV
Видео кодек: H.264
Аудио кодек: AC3
Видео: MPEG-4 AVC, 1280x720 (16:9), 25 fps, ~4.1 mbps, 0.18 bit/pixel
Аудио #1: Russian, Audio Coding 3, 48 kHz, 2.0 ch, CBR 192 kbps | Diva Universal
Аудио #2: English, Audio Coding 3, 48 kHz, 2.0 ch, CBR 192 kbps

General
Unique ID : 189153725205560546854741229429362995791 (0x8E4DAEAE43EEA4CFAFF014599317324F)
Complete name : gilmore.girls.s07e01.web-dl.720p.diva.eng.mkv
Format : Matroska
File size : 1.32 GiB
Duration : 40mn 58s
Overall bit rate : 4 624 Kbps
Movie name : 01 The Long Morrow.m4v.mp4 - by LinkinPark for HDBits.org
Encoded date : UTC 2011-06-27 19:39:21
Writing application : mkvmerge v4.8.0 ('I Got The...') сборка от May 24 2011 03:12:58
Writing library : libebml v1.2.0 + libmatroska v1.1.0

Video
ID : 1
Format : AVC
Format/Info : Advanced Video Codec
Format profile : High@L3.1
Format settings, CABAC : No
Format settings, ReFrames : 2 frames
Format settings, GOP : M=2, N=32
Codec ID : V_MPEG4/ISO/AVC
Duration : 40mn 58s
Bit rate : 4 148 Kbps
Width : 1 280 pixels
Height : 720 pixels
Display aspect ratio : 16:9
Frame rate : 25.000 fps
Color space : YUV
Chroma subsampling : 4:2:0
Bit depth : 8 bits
Scan type : Progressive
Bits/(Pixel*Frame) : 0.180
Stream size : 1.19 GiB (90%)
Title : The Long Morrow
Language : English
Color primaries : BT.709-5, BT.1361, IEC 61966-2-4, SMPTE RP177
Transfer characteristics : BT.709-5, BT.1361
Matrix coefficients : BT.709-5, BT.1361, IEC 61966-2-4 709, SMPTE RP177

Audio #1
ID : 2
Format : AC-3
Format/Info : Audio Coding 3
Mode extension : CM (complete main)
Codec ID : A_AC3
Duration : 40mn 58s
Bit rate mode : Constant
Bit rate : 192 Kbps
Channel(s) : 2 channels
Channel positions : Front: L R
Sampling rate : 48.0 KHz
Bit depth : 16 bits
Compression mode : Lossy
Stream size : 56.3 MiB (4%)
Title : Diva Universal
Language : Russian

Audio #2
ID : 3
Format : AC-3
Format/Info : Audio Coding 3
Mode extension : CM (complete main)
Codec ID : A_AC3
Duration : 40mn 58s
Bit rate mode : Constant
Bit rate : 192 Kbps
Channel(s) : 2 channels
Channel positions : Front: L R
Sampling rate : 48.0 KHz
Bit depth : 16 bits
Compression mode : Lossy
Stream size : 56.3 MiB (4%)
Title : Original
Language : English
pic pic pic pic pic

Этот торрент недоступен для скачивания без регистрации, однако доступен по публичной magnet-ссылке (источники с публичных трекеров). Перед использованием ссылки прочтите, пожалуйста Пользовательское соглашение, а также как можно дольше оставайтесь на раздаче! Для того, чтобы скачать сам торрент-файл (который видит больше источников), а также для того, чтобы поблагодарить релизера, вам необходимо зарегистрироваться. Если регистрироваться лень - вы можете также попробовать скачать релиз по нашим партнерским ссылкам ниже. Кроме того, зарегистрированным пользователям не показывается всплывающая реклама при скачивании.

[underverse.su].t42670.torrent
Трекер: Зарегистрирован   [ 13.08.2014 06:08 ]  

Статус: проверено (by Ведьмочка at 13.08.2014 06:12)
Поблагодарили: пока никто не поблагодарил...
Тип торрента: публичный - доступные источники с открытых трекеров: 
Размер: 28,74 GB (занимает 6,57 DVDR, для записи нужно 7 болванок DVDR/RW)
 
 

Яндекс.Метрика powered by Sphinx


В Н И М А Н И Е
Сайт не распространяет и не хранит электронные версии произведений, а лишь бесплатно и без коммерческой выгоды (не требуя взамен платы,
SMS и т.д.) предоставляет доступ к создаваемому пользователями каталогу ссылок на торрент-файлы, которые содержат только списки хеш-сумм.
Убедительная просьба с жалобами обращаться напрямую к пользователю, разместившему торрент файл.

Вверх