Loading...
Error

Пеноза / Преступный мир / Penoza / Сезон: 1 / Серии: 1-8 из 8 (Дидерик Ван Ружен / Diederik Van Rooijen) [2010, криминал, драма, BDRip 1080p] VO (Web Money) + Original + Subs (Rus)

Статистика раздачи
Размер:  27,26 GB   |    Зарегистрирован:  4 года 7 месяцев   |    Скачан:  4 раза

Полного источника не было: 6 месяцев

Сидов:  0  |  0 KB/s  ]   Личеров:  0  |  0 KB/s  ]

* - сиды/пиры с внешних источников

   
 
Автор Сообщение

uzi2009 Пол:Муж

13-Авг-2014 06:27

Пеноза / Преступный мир / Penoza

Год выпуска: 2010
Страна: Голландия
Жанр: криминал, драма
Продолжительность: 00:47:00

Перевод: Любительский (одноголосый закадровый) Web_Money
Режиссёр: Дидерик Ван Ружен / Diederik Van Rooijen

В ролях: МонИк Хэндрикс, Томас Акда, Нилс Гхомбэрт, Сингрит тен Напел, Стяйн Тафэрнэ, Том Янсен, Федя ван Хьюэт, Рэймонд ТИри, Олга Заудерхук, Марсэл хЭнсэма

Описание:
Главная героиня – это вдова криминального авторитета, сильная и решительная женщина. Она знает, чего хочет от этой жизни, и это точно не мирное вязание в кресле и не прогулки по торговым центрам. Главным приоритетом для нее является безопасность ее семьи, именно поэтому вдова принимает решение «войти в игру» и заменить своего погибшего мужа на его месте в преступном мире. Быть может, ей и хотелось бы жить вдали от криминальных дел, как это было прежде, но теперь судьба женщины и ее семьи зависит только от нее самой. И на этом опасном пути у нее нет права на ошибки и слабости.

Доп. информация:
Фильм ставший суперхитом у себя на родине и перекупленный для ремейков многими странами. Причем развитие сюжета идет по нарастающей и если в первом сезоне мы постепенно въезжаем в героев,то 2 и 3 все разворачивается с очень большой стремительносью. Спасибо всем кто причастен к появлению данного релиза(особенно Mokum (Victoria Roedakova) за прекрасный перевод), ссылка и упоминание всех обязательны на всех трекерах. Эксклюзив рутрекера,перевод с родного языка и в полном объеме!!! Европейская Сопрано в юбке на русском языке.

IMDb: 8.20 (1207)

Сэмпл: http://multi-up.com/987237

Качество: BDRip 1080p
Контейнер: MKV

Видео: 1920x1080 (16:9),MPEG-4 AVC, 25.000 fps, ~8400 kbps, 0.160 bit/pixel
Аудио: 48 kHz, AC3, 2/0 (L,R) ch, ~384.00 kbps avg VO Web_Money
Аудио 2: 48 kHz, DTS, 3/2 (L,C,R,l,r) + LFE ch, ~1510.00 kbps avg Original
Субтитры: softsub (SRT), русские Mokum (Victoria Roedakova)
Пеноза.Преступный Мир (VO+SUB) S01.BluRay 1080p\01 СЕРИЯ.mkv
Формат : Matroska
Версия формата : Version 2
Размер файла : 3,41 Гбайт
Продолжительность : 47 м.
Общий поток : 10,3 Мбит/сек
Дата кодирования : UTC 2014-07-18 11:01:56
Программа кодирования : mkvmerge v5.0.1 ('Es ist Sommer') built on Oct 9 2011 11:55:43
Библиотека кодирования : libebml v1.2.2 + libmatroska v1.3.0

Видео
Идентификатор : 1
Формат : AVC
Формат/Информация : Advanced Video Codec
Профиль формата : High@L4.1
Параметр CABAC формата : Да
Параметр ReFrames формата : 4 кадра
Параметры GOP формата : M=4, N=25
Идентификатор кодека : V_MPEG4/ISO/AVC
Продолжительность : 47 м.
Битрейт : 8369 Кбит/сек
Ширина : 1920 пикс.
Высота : 1080 пикс.
Соотношение сторон : 16:9
Частота кадров : 25,000 кадр/сек
Цветовое пространство : YUV
Подвыборка цветности : 4:2:0
Битовая глубина : 8 бит
Тип развёртки : Прогрессивная
Бит/(Пиксели*Кадры) : 0.161
Размер потока : 2,71 Гбайт (80%)
Заголовок : Penoza.S01E01.DUTCH.1080p.BluRay.x264-VeDeTT
Библиотека кодирования : x264 core 142 r2409 d6b4e63
Настройки программы : cabac=1 / ref=4 / deblock=1:0:0 / analyse=0x3:0x133 / me=umh / subme=7 / psy=1 / psy_rd=1.00:0.00 / mixed_ref=1 / me_range=16 / chroma_me=1 / trellis=1 / 8x8dct=1 / cqm=0 / deadzone=21,11 / fast_pskip=0 / chroma_qp_offset=-2 / threads=6 / lookahead_threads=1 / sliced_threads=0 / nr=0 / decimate=1 / interlaced=0 / bluray_compat=0 / constrained_intra=0 / bframes=3 / b_pyramid=2 / b_adapt=2 / b_bias=0 / direct=3 / weightb=1 / open_gop=0 / weightp=2 / keyint=250 / keyint_min=25 / scenecut=40 / intra_refresh=0 / rc_lookahead=50 / rc=2pass / mbtree=1 / bitrate=8369 / ratetol=1.0 / qcomp=0.60 / qpmin=0 / qpmax=69 / qpstep=4 / cplxblur=20.0 / qblur=0.5 / ip_ratio=1.40 / aq=1:1.00
Язык : English
Default : Да
Forced : Нет

Аудио #1
Идентификатор : 2
Формат : AC-3
Формат/Информация : Audio Coding 3
Расширение режима : CM (complete main)
Идентификатор кодека : A_AC3
Продолжительность : 47 м.
Вид битрейта : Постоянный
Битрейт : 384 Кбит/сек
Каналы : 2 канала
Расположение каналов : Front: L R
Частота : 48,0 КГц
Битовая глубина : 16 бит
Метод сжатия : С потерями
Размер потока : 131 Мбайт (4%)
Заголовок : Любительский (одноголосый закадровый) Web_Money
Язык : Russian
Default : Да
Forced : Нет

Аудио #2
Идентификатор : 3
Формат : DTS
Формат/Информация : Digital Theater Systems
Идентификатор кодека : A_DTS
Продолжительность : 47 м.
Вид битрейта : Постоянный
Битрейт : 1510 Кбит/сек
Каналы : 6 каналов
Расположение каналов : Front: L C R, Side: L R, LFE
Частота : 48,0 КГц
Битовая глубина : 24 бит
Метод сжатия : С потерями
Размер потока : 513 Мбайт (15%)
Язык : Dutch
Default : Нет
Forced : Нет

Текст
Идентификатор : 4
Формат : UTF-8
Идентификатор кодека : S_TEXT/UTF8
Идентификатор кодека/Информация : UTF-8 Plain Text
Заголовок : Sub Mokum (Victoria Roedakova)
Язык : Russian
Default : Нет
Forced : Нет
pic pic pic pic pic

Этот торрент недоступен для скачивания без регистрации, однако доступен по публичной magnet-ссылке (источники с публичных трекеров). Перед использованием ссылки прочтите, пожалуйста Пользовательское соглашение, а также как можно дольше оставайтесь на раздаче! Для того, чтобы скачать сам торрент-файл (который видит больше источников), а также для того, чтобы поблагодарить релизера, вам необходимо зарегистрироваться. Если регистрироваться лень - вы можете также попробовать скачать релиз по нашим партнерским ссылкам ниже. Кроме того, зарегистрированным пользователям не показывается всплывающая реклама при скачивании.

[underverse.su].t42671.torrent
Трекер: Зарегистрирован   [ 13.08.2014 06:27 ]  

Статус: проверено (by Ведьмочка at 13.08.2014 06:44)
Поблагодарили: пока никто не поблагодарил...
Тип торрента: публичный - доступные источники с открытых трекеров: 
Размер: 27,26 GB (занимает 6,23 DVDR, для записи нужно 7 болванок DVDR/RW)
 
 

Яндекс.Метрика powered by Sphinx


В Н И М А Н И Е
Сайт не распространяет и не хранит электронные версии произведений, а лишь бесплатно и без коммерческой выгоды (не требуя взамен платы,
SMS и т.д.) предоставляет доступ к создаваемому пользователями каталогу ссылок на торрент-файлы, которые содержат только списки хеш-сумм.
Убедительная просьба с жалобами обращаться напрямую к пользователю, разместившему торрент файл.

Вверх