Loading...
Error

Штамм / The Strain / Сезон: 1 / Серии: 1-13 из 13 (Гильермо дель Торо, Дэвид Семел, Кит Гордон) [2014, ужасы, фантастика, драма, WEB-DL 1080p] MVO (NewStudio) + Original

Статистика раздачи
Размер:  23,84 GB   |    Зарегистрирован:  4 года   |    Скачан:  10 раз

Полного источника не было: 1 год 3 месяца

Сидов:  0  |  0 KB/s  ]   Личеров:  0  |  0 KB/s  ]

* - сиды/пиры с внешних источников

   
 
Автор Сообщение

uzi2009 Пол:Муж

13-Авг-2014 07:05


Штамм / The Strain

Страна: США
Год выпуска: 2014
Жанр: ужасы, фантастика, драма
Продолжительность: ~ 00:45:00 серия
Режиссёр: Гильермо дель Торо, Дэвид Семел, Кит Гордон
Перевод: Профессиональный (многоголосый закадровый) NewStudio
В ролях: Дэвид Брэдли, Энн Бетанкорт, Николай Вич, Педро Мигель Арсе, Дрю Нельсон, Джо Веркилло, Джим Уотсон, Алекс Пэкстон, Джонатан Поттс, Рихард Заммель
Описание: Штамм» (англ. The Strain) —американский хоррор-сериал про вампиров, созданный по одноименному роману Гильермо Дель Торо и Чака Хогана. Самолет с пассажирами приземляется в аэропорту им. Кеннеди с выключенным светом и закрытыми дверями. Эпидемиолог доктор Эфраим Гудвевер и его команда отправляются на разведку. На борту они находят около двухсот трупов и четырех выживших. Ситуация ухудшается, когда тела умерших начинают исчезать из моргов. Гудвевер и небольшая группа помощников пытается бороться с древней угрозой, чтобы спасти не только себя и своих близких, но и весь город

Формат: MKV
Аудио кодек: AC3
Видео кодек: H.264
Качество: WEB-DL 1080p
Субтитры: отсутствуют
Аудио: 48 kHz, AC3 Dolby Digital, 3/2 (L,C,R,l,r) + LFE ch, ~384.00 kbps avg -Rus
Аудио: 48 kHz, AC3 Dolby Digital, 3/2 (L,C,R,l,r) + LFE ch, ~384.00 kbps avg -Eng
Видео: 1920x1080 (16:9), 23.976 fps, MPEG-4 AVC ~4900 - 5000 kbps avg, 0.10 bit/pixel


Общее
Уникальный идентификатор : 195836354306327056682856242943498933622 (0x9354B5BBBB7B5FB7ACC03A6AC3185576)
Полное имя : X:\ATorrent\The Strain (S01) NS 1080p\The.Strain.s01e01.WEBDL.1080p.*другой трекер*.mkv
Формат : Matroska
Версия формата : Version 2
Размер файла : 2,92 Гбайт
Продолжительность : 1 ч. 11 м.
Общий поток : 5831 Кбит/сек
Дата кодирования : UTC 2014-07-16 10:20:31
Программа кодирования : mkvmerge v2.9.9 ('Tutu') built on Nov 25 2009 21:13:32
Библиотека кодирования : libebml v0.7.9 + libmatroska v0.8.1

Видео
Идентификатор : 1
Формат : AVC
Формат/Информация : Advanced Video Codec
Профиль формата : High@L4.0
Параметр CABAC формата : Да
Параметр ReFrames формата : 4 кадра
Идентификатор кодека : V_MPEG4/ISO/AVC
Продолжительность : 1 ч. 11 м.
Битрейт : 4947 Кбит/сек
Ширина : 1920 пикселей
Высота : 1080 пикселей
Соотношение сторон : 16:9
Режим частоты кадров : Постоянный
Частота кадров : 23,976 кадра/сек
Цветовое пространство : YUV
Субдискретизация насыщенности : 4:2:0
Битовая глубина : 8 бит
Тип развёртки : Прогрессивная
Бит/(Пиксели*Кадры) : 0.100
Размер потока : 2,48 Гбайт (85%)
Язык : English
Default : Нет
Forced : Нет
Основные цвета : BT.709
Характеристики трансфера : BT.709
Коэффициенты матрицы : BT.709

Аудио #1
Идентификатор : 2
Формат : AC-3
Формат/Информация : Audio Coding 3
Расширение режима : CM (complete main)
Параметр Endianness формата : Big
Идентификатор кодека : A_AC3
Продолжительность : 1 ч. 11 м.
Вид битрейта : Постоянный
Битрейт : 384 Кбит/сек
Каналы : 6 каналов
Расположение каналов : Front: L C R, Side: L R, LFE
Частота : 48,0 КГц
Битовая глубина : 16 бит
Метод сжатия : С потерями
Размер потока : 197 Мбайт (7%)
Язык : Russian
Default : Да
Forced : Да

Аудио #2
Идентификатор : 3
Формат : AC-3
Формат/Информация : Audio Coding 3
Расширение режима : CM (complete main)
Параметр Endianness формата : Big
Идентификатор кодека : A_AC3
Продолжительность : 1 ч. 11 м.
Вид битрейта : Постоянный
Битрейт : 384 Кбит/сек
Каналы : 6 каналов
Расположение каналов : Front: L C R, Side: L R, LFE
Частота : 48,0 КГц
Битовая глубина : 16 бит
Метод сжатия : С потерями
Размер потока : 197 Мбайт (7%)
Язык : English
Default : Нет
Forced : Нет

Текст
Идентификатор : 4
Формат : ASS
Идентификатор кодека : S_TEXT/ASS
Идентификатор кодека/Информация : Advanced Sub Station Alpha
Метод сжатия : Без потерь
Default : Да
Forced : Да
picpic pic pic pic
Когда раздача ведётся путём добавления новых серий, при каждом добавлении создётся новый торрент. Чтобы начать докачку новой серии, пользователям необходимо сделать следующее:
(1) остановить скачивание,
(2) удалить старый торрент у себя из клиента (старые серии удалять не надо),
(3) скачать новый торрент и запустить его у себя в клиенте вместо старого, при этом указать клиенту путь в старую папку, куда и должно происходить скачивание новых серий.
Ваш клиент при этом должен произвести хеширование (проверку) старой папки (если не производит сам - помогите ему сделать это), и будет докачивать только те серии, которых у вас ещё нет. Старые серии при этом не удаляются, а продолжают раздаваться!
Eсли вы уже удалили старые серии, то предотвратить повторную закачку старых серий можно, отжав галочку в соответсвующих местах при запуске нового торрента. По возможности, желательно не удалять старые серии как можно дольше, чтобы релизёр не столько продолжал раздавать старые серии, а смог сконцентрироваться на новых.


28.08.2014 - добавлены 6 и 7 серии.


28.08.2014 - добавлена 8 серия.


28.08.2014 - добавлены 9 и 10 серии.


09.11.2014 - добавлены 11, 12 и 13 заключительная серия 1 сезона.

Этот торрент недоступен для скачивания без регистрации, однако доступен по публичной magnet-ссылке (источники с публичных трекеров). Перед использованием ссылки прочтите, пожалуйста Пользовательское соглашение, а также как можно дольше оставайтесь на раздаче! Для того, чтобы скачать сам торрент-файл (который видит больше источников), а также для того, чтобы поблагодарить релизера, вам необходимо зарегистрироваться. Если регистрироваться лень - вы можете также попробовать скачать релиз по нашим партнерским ссылкам ниже. Кроме того, зарегистрированным пользователям не показывается всплывающая реклама при скачивании.

[underverse.su].t42678.torrent
Трекер: Зарегистрирован   [ 08.11.2014 22:37 ]  

Статус: проверено (by nemos at 15.11.2014 10:40)
Поблагодарили: пока никто не поблагодарил...
Тип торрента: публичный - доступные источники с открытых трекеров: 
Размер: 23,84 GB (занимает 5,45 DVDR, для записи нужно 6 болванок DVDR/RW)
 
 
Похожие темы
Форум Тема Автор Торрент Отв. Посл. сооб.
Архив (Сериалы) Штамм / The Strain / Сезон 2 (1-13 серии из 13) (Фил Абрахам, Питер Уэллер, Гильермо дель Торо) [2015 г., ужасы, триллер, драма, WEB-DLRip] MVO older
0 | 2

10 | 2583

6

31.01.2018 16:59



Последний раз редактировалось: uzi2009 (14.11.2014 11:32), всего редактировалось 1 раз

nemos Пол:Муж

10-Ноя-2014 13:55

pic С MediaInfo расходятся! По последней заключительной серии всё сделайте.

10-Ноя-2014 18:40

Топик был перенесен из форума Зарубежные сериалы [BD / Remux / BDRip / WEB-DL / HDTV 1080/720р] в форум Отстойник


nemos
 

15-Ноя-2014 10:42

Топик был перенесен из форума Отстойник в форум Зарубежные сериалы [BD / Remux / BDRip / WEB-DL / HDTV 1080/720р]


nemos
 

Яндекс.Метрика powered by Sphinx


В Н И М А Н И Е
Сайт не распространяет и не хранит электронные версии произведений, а лишь бесплатно и без коммерческой выгоды (не требуя взамен платы,
SMS и т.д.) предоставляет доступ к создаваемому пользователями каталогу ссылок на торрент-файлы, которые содержат только списки хеш-сумм.
Убедительная просьба с жалобами обращаться напрямую к пользователю, разместившему торрент файл.

Вверх