Loading...
Error

Рим / Rome / Сезон: 1-2 / Серии: 1-22 из 22 (Майкл Эптед / Michael Apted) [2005-2007, исторический, драма, приключения, BDRemux 1080p] MVO (Lostfilm) + MVO (НТВ+) + Original + Subs (Rus, Eng)

Статистика раздачи
Размер:  265,87 GB   |    Зарегистрирован:  4 года 2 месяца   |    Скачан:  7 раз
Сидов:  1  |  153 KB/s  ]   Личеров:  0  |  0 KB/s  ]

* - сиды/пиры с внешних источников

   
 
Автор Сообщение

uzi2009 Пол:Муж

05-Сен-2014 14:35


Рим: Все серии / Rome: The Complete Series
Год выпуска: 2005-2007
Страна: США, Великобритания
Жанр: исторический, драма, приключения
Продолжительность: ~55 минут
Перевод: Профессиональный (многоголосый закадровый) Lostfilm
Перевод 2: Профессиональный (многоголосый закадровый) НТВ+
Русские субтитры: есть (2 шт.)
Режиссер: Майкл Эптед / Michael Apted
В ролях: Кевин МакКид, Рэй Стивенсон, Полли Уокер, Сиаран Хиндс, Джеймс Пьюрфой, Керри Кондон, Йэн МакНайс, Линдсей Данкан, Тобиас Мензиес, Николас Вудисон, Линдси Маршал, Индира Варма, Дэвид Бэмбер, Макс Пиркис, Саймон Вудс, Зулейка Робинсон
Описание: "Рим" - совместный проект BBC и американской телекомпании HBO. Многосерийная кинолента переносит зрителя в середину I века до нашей эры - в период заката Римской республики.

Проконсул и император галльских легионов Гай Юлий Цезарь возвращается в Рим после почти девятилетней войны, полностью подавив восстание галлов. Объявленный вне закона, он вступает в конфронтацию с сенатом и консулом Гнеем Помпеем. Первый сезон сериала "Рим" повествует об этом и последующих событиях времен правления Цезаря вплоть до трагических мартовских ид 44-го года.

На фоне кровавых войн, безжалостных интриг и борьбы за власть, прикрываемой словами о возрождении Республики, рассказывается и о нелегкой участи простых людей. Двое ветеранов прославленного 13-го легиона - Луций Ворен и Тит Пуло пытаются вернуться к нормальной гражданской жизни, но мечтам о мире и покое не суждено сбыться.

Красочные, яркие сцены, по словам создателей телесериала, отличаются максимальной исторической достоверностью. Дело не только в скрупулезном следовании деталям в создании костюмов и интерьеров. Авторам удалось передать дух эпохи с ее жестокими нравами, батальными сценами, обилием секса. Именно так создатели картины представляют себе последние годы правления Юлия Цезаря.
Рим, 44 год до нашей эры. Юлий Цезарь убит в здании Сената, и гражданская война охватила Республику. Октавиан, согласно завещания Цезаря, провозглашен его единственным сыном и наследником. Амбициозный Марк Антоний усиливает свою власть, сближаясь с Атией, матерью Октавиана. Брут ищет популярность у народа Рима, который считает его убийцей, а его мать Сервилия плетет собственную паутину заговоров. Тит Пулло пытается вытащить своего друга Люция Ворена из тьмы, поглотившей его душу после смерти жены и потери семьи. И снова судьбы этих двух солдат будут воедино связаны с судьбой Рима...
Доп. информация: IMDB: User Rating: 8.9/10 (56 595 votes)

Качество: BDRemux {Rome S01-S02 1080p Blu-ray AVC DTS-HD MA 5.1-CtrlHD}
Формат: MKV
Видео кодек: H.264
Аудио кодек: AC3, DTS-HD MA
Видео: MPEG-4 AVC Video ~28857 kbps 1080p / 23.976 fps / 16:9 / High Profile 4.1
Аудио: Dolby Digital Audio Russian 384 kbps 5.1 / 48 kHz | Lostfilm
Аудио: Dolby Digital Audio Russian 192 kbps 2.0 / 48 kHz | НТВ+
Аудио: DTS-HD Master Audio English ~4381 kbps 5.1 / 48 kHz / 4381 kbps / 24-bit (DTS Core: 5.1 / 48 kHz / 1509 kbps / 24-bit)

Субтитры: Русские (Киномания), Русские (субтитры.ру), Английские.
pic pic pic pic pic
pic pic pic pic pic


Код:

General
Complete name                    : W:\Сериалы\Рим (Rome)\S01\Rome S01E01.mkv
Format                           : Matroska
File size                        : 12.1 GiB
Duration                         : 52mn 18s
Overall bit rate                 : 33.2 Mbps
Movie name                       : Release for RuTracker
Encoded date                     : UTC 2013-05-18 12:07:41
Writing application              : mkvmerge v4.9.1 ('Ich will') сборка от Jul 11 2011 23:53:15
Writing library                  : libebml v1.2.1 + libmatroska v1.1.1

Video
ID                               : 1
Format                           : AVC
Format/Info                      : Advanced Video Codec
Format profile                   : High@L4.1
Format settings, CABAC           : Yes
Format settings, ReFrames        : 4 frames
Format settings, GOP             : M=3, N=26
Muxing mode                      : Container profile=Unknown@4.1
Codec ID                         : V_MPEG4/ISO/AVC
Duration                         : 52mn 18s
Bit rate mode                    : Variable
Maximum bit rate                 : 32.7 Mbps
Width                            : 1 920 pixels
Height                           : 1 080 pixels
Display aspect ratio             : 16:9
Frame rate                       : 23.976 fps
Color space                      : YUV
Chroma subsampling               : 4:2:0
Bit depth                        : 8 bits
Scan type                        : Progressive
Language                         : English
Color primaries                  : BT.709-5, BT.1361, IEC 61966-2-4, SMPTE RP177
Transfer characteristics         : BT.709-5, BT.1361
Matrix coefficients              : BT.709-5, BT.1361, IEC 61966-2-4 709, SMPTE RP177

Audio #1
ID                               : 2
Format                           : AC-3
Format/Info                      : Audio Coding 3
Mode extension                   : ME (music and effects)
Codec ID                         : A_AC3
Duration                         : 52mn 18s
Bit rate mode                    : Constant
Bit rate                         : 384 Kbps
Channel(s)                       : 6 channels
Channel positions                : Front: L C R, Side: L R, LFE
Sampling rate                    : 48.0 KHz
Bit depth                        : 16 bits
Video delay                      : 15ms
Stream size                      : 144 MiB (1%)
Title                            : AC3 5.1, 384 kbps (многоголосый, LostFilm)
Language                         : Russian

Audio #2
ID                               : 3
Format                           : AC-3
Format/Info                      : Audio Coding 3
Mode extension                   : ME (music and effects)
Codec ID                         : A_AC3
Duration                         : 52mn 18s
Bit rate mode                    : Constant
Bit rate                         : 192 Kbps
Channel(s)                       : 2 channels
Channel positions                : Front: L R
Sampling rate                    : 48.0 KHz
Bit depth                        : 16 bits
Stream size                      : 71.8 MiB (1%)
Title                            : AC3 2.0, 192 kbps (многоголосый, НТВ+)
Language                         : Russian

Audio #3
ID                               : 4
Format                           : DTS
Format/Info                      : Digital Theater Systems
Format profile                   : MA
Codec ID                         : A_DTS
Duration                         : 52mn 18s
Bit rate mode                    : Variable
Channel(s)                       : 6 channels
Channel positions                : Front: L C R, Side: L R, LFE
Sampling rate                    : 48.0 KHz
Bit depth                        : 24 bits
Language                         : English

Text #1
ID                               : 5
Format                           : UTF-8
Codec ID                         : S_TEXT/UTF8
Codec ID/Info                    : UTF-8 Plain Text
Title                            : Киномания
Language                         : Russian

Text #2
ID                               : 6
Format                           : UTF-8
Codec ID                         : S_TEXT/UTF8
Codec ID/Info                    : UTF-8 Plain Text
Title                            : izmail
Language                         : Russian

Text #3
ID                               : 7
Format                           : UTF-8
Codec ID                         : S_TEXT/UTF8
Codec ID/Info                    : UTF-8 Plain Text
Title                            : English
Language                         : English


Код:

General
Complete name                    : W:\Сериалы\Рим (Rome)\S02\Rome S02E01.mkv
Format                           : Matroska
File size                        : 14.0 GiB
Duration                         : 57mn 50s
Overall bit rate                 : 34.6 Mbps
Movie name                       : Release for RuTracker
Encoded date                     : UTC 2013-05-18 13:15:57
Writing application              : mkvmerge v4.9.1 ('Ich will') сборка от Jul 11 2011 23:53:15
Writing library                  : libebml v1.2.1 + libmatroska v1.1.1

Video
ID                               : 1
Format                           : AVC
Format/Info                      : Advanced Video Codec
Format profile                   : High@L4.1
Format settings, CABAC           : Yes
Format settings, ReFrames        : 4 frames
Format settings, GOP             : M=3, N=26
Muxing mode                      : Container profile=Unknown@4.1
Codec ID                         : V_MPEG4/ISO/AVC
Duration                         : 57mn 50s
Bit rate mode                    : Variable
Maximum bit rate                 : 32.0 Mbps
Width                            : 1 920 pixels
Height                           : 1 080 pixels
Display aspect ratio             : 16:9
Frame rate                       : 23.976 fps
Color space                      : YUV
Chroma subsampling               : 4:2:0
Bit depth                        : 8 bits
Scan type                        : Progressive
Language                         : English
Color primaries                  : BT.709-5, BT.1361, IEC 61966-2-4, SMPTE RP177
Transfer characteristics         : BT.709-5, BT.1361
Matrix coefficients              : BT.709-5, BT.1361, IEC 61966-2-4 709, SMPTE RP177

Audio #1
ID                               : 2
Format                           : AC-3
Format/Info                      : Audio Coding 3
Mode extension                   : CM (complete main)
Codec ID                         : A_AC3
Duration                         : 57mn 50s
Bit rate mode                    : Constant
Bit rate                         : 384 Kbps
Channel(s)                       : 6 channels
Channel positions                : Front: L C R, Side: L R, LFE
Sampling rate                    : 48.0 KHz
Bit depth                        : 16 bits
Stream size                      : 159 MiB (1%)
Title                            : AC3 5.1, 384 kbps (многоголосый, Lostfilm)
Language                         : Russian

Audio #2
ID                               : 3
Format                           : AC-3
Format/Info                      : Audio Coding 3
Mode extension                   : CM (complete main)
Codec ID                         : A_AC3
Duration                         : 57mn 50s
Bit rate mode                    : Constant
Bit rate                         : 192 Kbps
Channel(s)                       : 2 channels
Channel positions                : Front: L R
Sampling rate                    : 48.0 KHz
Bit depth                        : 16 bits
Stream size                      : 79.4 MiB (1%)
Title                            : AC3 2.0, 192 kbps (многоголосый, НТВ+)
Language                         : Russian

Audio #3
ID                               : 4
Format                           : DTS
Format/Info                      : Digital Theater Systems
Format profile                   : MA
Codec ID                         : A_DTS
Duration                         : 57mn 50s
Bit rate mode                    : Variable
Channel(s)                       : 6 channels
Channel positions                : Front: L C R, Side: L R, LFE
Sampling rate                    : 48.0 KHz
Bit depth                        : 24 bits
Language                         : English

Text #1
ID                               : 5
Format                           : UTF-8
Codec ID                         : S_TEXT/UTF8
Codec ID/Info                    : UTF-8 Plain Text
Title                            : Киномания
Language                         : Russian

Text #2
ID                               : 6
Format                           : UTF-8
Codec ID                         : S_TEXT/UTF8
Codec ID/Info                    : UTF-8 Plain Text
Title                            : субтитры.ру
Language                         : Russian

Text #3
ID                               : 7
Format                           : UTF-8
Codec ID                         : S_TEXT/UTF8
Codec ID/Info                    : UTF-8 Plain Text
Title                            : English
Language                         : English

Цитата:



  • Русский звук и субтитры с раздачи -Jackal-.

  • За дорожки\субтитры первого сезона спасибо ТыНьО.

  • За оригинальные Blu-Ray спасибо CtrlHD.

Этот торрент недоступен для скачивания без регистрации, однако доступен по публичной magnet-ссылке (источники с публичных трекеров). Перед использованием ссылки прочтите, пожалуйста Пользовательское соглашение, а также как можно дольше оставайтесь на раздаче! Для того, чтобы скачать сам торрент-файл (который видит больше источников), а также для того, чтобы поблагодарить релизера, вам необходимо зарегистрироваться. Если регистрироваться лень - вы можете также попробовать скачать релиз по нашим партнерским ссылкам ниже. Кроме того, зарегистрированным пользователям не показывается всплывающая реклама при скачивании.

[underverse.su].t43622.torrent
Трекер: Зарегистрирован   [ 05.09.2014 14:35 ]  

Статус: проверено (by Паукан at 08.09.2014 09:07)
Поблагодарили: пока никто не поблагодарил...
Тип торрента: публичный - доступные источники с открытых трекеров: 
Размер: 265,87 GB (занимает 60,73 DVDR, для записи нужно 61 болванка DVDR/RW)
 
 
Похожие темы
Форум Тема Автор Торрент Отв. Посл. сооб.
Зарубежные сериалы [BD / Remux / BDRip / WEB-DL / HDTV 1080/720р] Рим / Rome (1-2 сезон: 1-22 серии из 22) (Майкл Эптид, Аллен Коултер,..) [2005-2007 г., Исторический, драма, военный, боевик, BDRip 720p] 2xMVO + DVO + MVO (Ukr) + Original + Sub mihis
0 | 0

0 | 960

10

16.12.2016 19:22

Зарубежные сериалы [BD / Remux / BDRip / WEB-DL / HDTV 1080/720р] Рим / Rome / Сезон: 1-2 / Серии: 1-22 из 22 (Майкл Эптед / Michael Apted) [2005-2007, Историческая драма, Древний Рим, гладиаторы, боеви, BDRip 1080p] DVO (НТВ+) + DVO (ТРК «Петербург - 5-й канал») +... uzi2009
15 | 6

0 | 2078

9

05.09.2014 14:45


Яндекс.Метрика powered by Sphinx


В Н И М А Н И Е
Сайт не распространяет и не хранит электронные версии произведений, а лишь бесплатно и без коммерческой выгоды (не требуя взамен платы,
SMS и т.д.) предоставляет доступ к создаваемому пользователями каталогу ссылок на торрент-файлы, которые содержат только списки хеш-сумм.
Убедительная просьба с жалобами обращаться напрямую к пользователю, разместившему торрент файл.

Вверх