Loading...
Error

Рим / Rome / Сезон: 1-2 / Серии: 1-22 из 22 (Майкл Эптед / Michael Apted) [2005-2007, Историческая драма, Древний Рим, гладиаторы, боеви, BDRip 1080p] DVO (НТВ+) + DVO (ТРК «Петербург - 5-й канал») + MVO (LostFilm) + Original + Rus Subs

Статистика раздачи
Размер:  164,85 GB   |    Зарегистрирован:  4 года 2 месяца   |    Скачан:  9 раз

Полного источника не было: 4 часа

Сидов:  0  |  0 KB/s  ]   Личеров:  0  |  0 KB/s  ]

* - сиды/пиры с внешних источников

   
 
Автор Сообщение

uzi2009 Пол:Муж

05-Сен-2014 14:45

Рим / Rome

Год выпуска: 2005-2007
Страна: США, Великобритания
Жанр: Историческая драма, Древний Рим, гладиаторы, боевик
Продолжительность: 22 x ~ 00:55:00

Перевод: Профессиональный (двухголосый закадровый) НТВ+
Перевод 2: Профессиональный (двухголосый закадровый) ТРК «Петербург - 5-й канал»
Перевод 3: Профессиональный (многоголосый закадровый) LostFilm
Режиссёр: Майкл Эптед / Michael Apted

В ролях: Кевин МакКидд, Рэй Стивенсон, Полли Уокер, Керри Кондон, Киаран Хайндс, Джеймс Пьюрфой, Йен МакНайс, Линдсэй Дункан, Лидия Бионди, Тобиаш Мензес, Дэвид Бамбер, Макс Пиркис, Ли Бордман

Описание:
Многосерийная кинолента переносит зрителя в середину I века до нашей эры - в период заката Римской республики.Проконсул и император галльских легионов Гай Юлий Цезарь возвращается в Рим после почти девятилетней войны, полностью подавив восстание галлов. Объявленный вне закона, он вступает в конфронтацию с сенатом и консулом Гнеем Помпеем. Первый сезон сериала "Рим" повествует об этом и последующих событиях времен правления Цезаря вплоть до трагических мартовских ид 44-го года.На фоне кровавых войн, безжалостных интриг и борьбы за власть, прикрываемой словами о возрождении Республики, рассказывается и о нелегкой участи простых людей. Двое ветеранов прославленного 13-го легиона - Луций Ворен и Тит Пуло пытаются вернуться к нормальной гражданской жизни, но мечтам о мире и покое не суждено сбыться.Красочные, яркие сцены, по словам создателей телесериала, отличаются максимальной исторической достоверностью. Дело не только в скрупулезном следовании деталям в создании костюмов и интерьеров. Авторам удалось передать дух эпохи с ее жестокими нравами, батальными сценами, обилием секса. Именно так создатели картины представляют себе последние годы правления Юлия Цезаря.



Качество: BDRip 1080p
Контейнер: MKV

Видео: MPEG-4 AVC, 17.5 Мбит/с, 1920x1080, 23.976 кадр/с
Аудио: Русский (АС3, 2 ch, 192 Кбит/с) Профессиональный двухголосый (НТВ+)
Аудио 2: Русский (АС3, 2 ch, 192 Кбит/с) Профессиональный двухголосый (ТРК «Петербург - 5-й канал»)
Аудио 3: Русский (AC3, 6 ch, 448 Кбит/с) Профессиональный многоголосый (LostFilm)
Аудио 4: Английский (DTS, 6 ch, 1536 Кбит/с)
Субтитры: softsub (SRT) Русские, английские
Релиз от: Rip by BenderBEST
Общее
Уникальный идентификатор : 212567168857452951852958750336454882498 (0x9FEAF293EC2ACCF5931E5FE5F9DDF4C2)
Полное имя : C:\Users\admin\Desktop\1 (1).mkv
Формат : Matroska
Версия формата : Version 2
Размер файла : 7,22 Гбайт
Продолжительность : 52 м.
Общий поток : 19,8 Мбит/сек
Название фильма : ReJIiZ MediaClub by BenderBEST
Дата кодирования : UTC 2014-08-03 14:46:26
Программа кодирования : mkvmerge v4.2.0 ('No Talking') сборка от Jul 28 2010 18:38:23
Библиотека кодирования : libebml v1.0.0 + libmatroska v1.0.0
Attachment : Yes

Видео
Идентификатор : 1
Формат : AVC
Формат/Информация : Advanced Video Codec
Профиль формата : High@L4.1
Параметр CABAC формата : Да
Параметр ReFrames формата : 4 кадра
Режим смешивания : Header stripping
Идентификатор кодека : V_MPEG4/ISO/AVC
Продолжительность : 52 м.
Битрейт : 17,5 Мбит/сек
Ширина : 1920 пикселей
Высота : 1080 пикселей
Соотношение сторон : 16:9
Режим частоты кадров : Постоянный
Частота кадров : 23,976 кадра/сек
Цветовое пространство : YUV
Субдискретизация насыщенности : 4:2:0
Битовая глубина : 8 бит
Тип развёртки : Прогрессивная
Бит/(Пиксели*Кадры) : 0.352
Размер потока : 6,22 Гбайт (86%)
Библиотека кодирования : x264 core 68 r1183M f21daff
Настройки программы : cabac=1 / ref=4 / deblock=1:-3:-3 / analyse=0x3:0x113 / me=umh / subme=9 / psy_rd=1.0:0.4 / mixed_ref=1 / me_range=32 / chroma_me=1 / trellis=2 / 8x8dct=1 / cqm=0 / deadzone=21,11 / chroma_qp_offset=-4 / threads=12 / nr=0 / decimate=1 / mbaff=0 / bframes=5 / b_pyramid=1 / b_adapt=2 / b_bias=0 / direct=3 / wpredb=1 / keyint=250 / keyint_min=25 / scenecut=40 / rc=2pass / bitrate=17500 / ratetol=1.0 / qcomp=0.60 / qpmin=10 / qpmax=51 / qpstep=4 / cplxblur=20.0 / qblur=0.5 / vbv_maxrate=50000 / vbv_bufsize=50000 / ip_ratio=1.40 / pb_ratio=1.30 / aq=0
Язык : English
Default : Да
Forced : Да

Аудио #1
Идентификатор : 2
Формат : AC-3
Формат/Информация : Audio Coding 3
Расширение режима : ME (music and effects)
Параметр Endianness формата : Big
Режим смешивания : Header stripping
Идентификатор кодека : A_AC3
Продолжительность : 52 м.
Вид битрейта : Постоянный
Битрейт : 192 Кбит/сек
Каналы : 2 канала
Расположение каналов : Front: L R
Частота : 48,0 КГц
Битовая глубина : 16 бит
Метод сжатия : С потерями
Размер потока : 71,8 Мбайт (1%)
Заголовок : «НТВ»
Язык : Russian
Default : Да
Forced : Нет

Аудио #2
Идентификатор : 3
Формат : AC-3
Формат/Информация : Audio Coding 3
Расширение режима : CM (complete main)
Параметр Endianness формата : Big
Режим смешивания : Header stripping
Идентификатор кодека : A_AC3
Продолжительность : 52 м.
Вид битрейта : Постоянный
Битрейт : 192 Кбит/сек
Каналы : 2 канала
Расположение каналов : Front: L R
Частота : 48,0 КГц
Битовая глубина : 16 бит
Метод сжатия : С потерями
Задержка видео : 608 мс.
Размер потока : 71,8 Мбайт (1%)
Заголовок : ТРК «Петербург - 5-й канал»
Язык : Russian
Default : Нет
Forced : Нет

Аудио #3
Идентификатор : 4
Формат : AC-3
Формат/Информация : Audio Coding 3
Расширение режима : CM (complete main)
Параметр Endianness формата : Big
Режим смешивания : Header stripping
Идентификатор кодека : A_AC3
Продолжительность : 52 м.
Вид битрейта : Постоянный
Битрейт : 448 Кбит/сек
Каналы : 6 каналов
Расположение каналов : Front: L C R, Side: L R, LFE
Частота : 48,0 КГц
Битовая глубина : 16 бит
Метод сжатия : С потерями
Задержка видео : 506 мс.
Размер потока : 168 Мбайт (2%)
Заголовок : «LostFilm» Kravec
Язык : Russian
Default : Нет
Forced : Нет

Аудио #4
Идентификатор : 5
Формат : DTS
Формат/Информация : Digital Theater Systems
Режим : 16
Параметр Endianness формата : Big
Режим смешивания : Header stripping
Идентификатор кодека : A_DTS
Продолжительность : 52 м.
Вид битрейта : Постоянный
Битрейт : 1510 Кбит/сек
Каналы : 6 каналов
Расположение каналов : Front: L C R, Side: L R, LFE
Частота : 48,0 КГц
Битовая глубина : 24 бит
Метод сжатия : С потерями
Размер потока : 565 Мбайт (8%)
Язык : English
Default : Нет
Forced : Нет

Текст #1
Идентификатор : 6
Формат : UTF-8
Идентификатор кодека : S_TEXT/UTF8
Идентификатор кодека/Информация : UTF-8 Plain Text
Язык : Russian
Default : Нет
Forced : Нет

Текст #2
Идентификатор : 7
Формат : UTF-8
Идентификатор кодека : S_TEXT/UTF8
Идентификатор кодека/Информация : UTF-8 Plain Text
Язык : English
Default : Нет
Forced : Нет

Меню
00:00:00.000 : ru:Глава 1-я
00:05:00.000 : ru:Глава 2-я
00:10:00.000 : ru:Глава 3-я
00:15:00.000 : ru:Глава 4-я
00:20:00.000 : ru:Глава 5-я
00:25:00.000 : ru:Глава 6-я
00:30:00.000 : ru:Глава 7-я
00:35:00.000 : ru:Глава 8-я
00:40:00.000 : ru:Глава 9-я
pic pic pic pic pic

Этот торрент недоступен для скачивания без регистрации, однако доступен по публичной magnet-ссылке (источники с публичных трекеров). Перед использованием ссылки прочтите, пожалуйста Пользовательское соглашение, а также как можно дольше оставайтесь на раздаче! Для того, чтобы скачать сам торрент-файл (который видит больше источников), а также для того, чтобы поблагодарить релизера, вам необходимо зарегистрироваться. Если регистрироваться лень - вы можете также попробовать скачать релиз по нашим партнерским ссылкам ниже. Кроме того, зарегистрированным пользователям не показывается всплывающая реклама при скачивании.

[underverse.su].t43623.torrent
Трекер: Зарегистрирован   [ 05.09.2014 14:45 ]  

Статус: проверено (by Паукан at 08.09.2014 09:07)
Поблагодарили: 1 человек
Тип торрента: публичный - доступные источники с открытых трекеров: 
Размер: 164,85 GB (занимает 37,66 DVDR, для записи нужно 38 болванок DVDR/RW)
 
 
Похожие темы
Форум Тема Автор Торрент Отв. Посл. сооб.
Зарубежные сериалы [BD / Remux / BDRip / WEB-DL / HDTV 1080/720р] Рим / Rome (1-2 сезон: 1-22 серии из 22) (Майкл Эптид, Аллен Коултер,..) [2005-2007 г., Исторический, драма, военный, боевик, BDRip 720p] 2xMVO + DVO + MVO (Ukr) + Original + Sub mihis
0 | 0

0 | 962

10

16.12.2016 19:22

Зарубежные сериалы [BD / Remux / BDRip / WEB-DL / HDTV 1080/720р] Рим / Rome / Сезон: 1-2 / Серии: 1-22 из 22 (Майкл Эптед / Michael Apted) [2005-2007, исторический, драма, приключения, BDRemux 1080p] MVO (Lostfilm) + MVO (НТВ+) + Original + Subs (Rus, Eng) uzi2009
17 | 3

0 | 2147

7

05.09.2014 14:35


Яндекс.Метрика powered by Sphinx


В Н И М А Н И Е
Сайт не распространяет и не хранит электронные версии произведений, а лишь бесплатно и без коммерческой выгоды (не требуя взамен платы,
SMS и т.д.) предоставляет доступ к создаваемому пользователями каталогу ссылок на торрент-файлы, которые содержат только списки хеш-сумм.
Убедительная просьба с жалобами обращаться напрямую к пользователю, разместившему торрент файл.

Вверх