Loading...
Error

Соломенные псы / Straw Dogs (Сэм Пекинпа / Sam Peckinpah) [1971 г., триллер, драма, BDRemux 1080p] MVO (Rus)+ AVOx4 (Rus) + Original (ENG) + Subs (ENG)

Статистика раздачи
Размер:  34,25 GB   |    Зарегистрирован:  3 года 11 месяцев   |    Скачан:  5 раз

Полного источника не было: 9 месяцев

Сидов:  0  |  0 KB/s  ]   Личеров:  0  |  0 KB/s  ]

* - сиды/пиры с внешних источников

   
 
Автор Сообщение

uzi2009 Пол:Муж

09-Сен-2014 10:04

Соломенные псы / Straw Dogs

Год выпуска: 1971
Страна: США, Великобритания
Жанр: триллер, драма
Продолжительность: 1:57:54
Перевод: Профессиональный (многоголосый, закадровый) 2 варианта
Перевод: Авторский (одноголосый закадровый) 4 варианта
Cубтитры: английские

Режиссер: Сэм Пекинпа / Sam Peckinpah

В ролях: Дастин Хоффман, Сьюзен Джордж, Питер Вон, Т.П. МакКенна, Дел Хенни, Джим Нортон, Дональд Уэбстер, Кен Хатчинсон, Лен Джонс, Сэлли Томсетт

Описание: Застенчивый американский математик Дэвид переезжает в сельскую Англию на ферму, где родилась и выросла его сексапильная жена. Местное население настроено враждебно и ведет себя как стая мародеров из «Ночи живых мертвецов». И робкий математик, убежденный противник насилия, больше всего на свете обожающий тишину и уединение, вынужден защищать свою честь с оружием в руках. А почуяв запах крови, он уже не может остановиться и начинает убивать, убивать, убивать…

Доп. информация: РЕЛИЗ ГРУППЫ

Качество: BDRemux
Формат: MKV
Видео: MPEG-4 AVC Video 37418 kbps 1080p / 23.976 fps / 16:9 / High Profile 4.1
Аудио: Dolby Digital Audio Russian 2.0 / 48 kHz / 192 kbps [ДВД Магия]
Аудио: Dolby Digital Audio Russian 2.0 / 48 kHz / 192 kbps [ЕА]
Аудио: Dolby Digital Audio Russian 2.0 / 48 kHz / 192 kbps [Живов]
Аудио: Dolby Digital Audio Russian 2.0 / 48 kHz / 192 kbps [Михалев]
Аудио: Dolby Digital Audio Russian 2.0 / 48 kHz / 192 kbps [Толбин]
Аудио: Dolby Digital Audio Russian 2.0 / 48 kHz / 192 kbps [Гаврилов]*
Аудио: DTS-HD Master Audio English 5.1 / 48 kHz / 3415 kbps / 24-bit (DTS Core: 5.1 / 48 kHz / 1509 kbps / 24-bit)

Цитата:

за авторские дорожки спасибо форуму е180 и dunhill200
Гаврилов переработан основательно после

Цитата:

Цитата:

Все максимально возможное для улучшения ее качества AVV_UA было сделано
Все шумные сцены без речи, мной заменены на чистый оригинал, ~41 минута
picpic
General
Unique ID : 234394368746018623472835716776472971270 (0xB056B69E85E7EE26B6A36CB1C4418806)
Complete name : J:\Straw.Dogs.1971.1080p.Bluray.AVC.Remux.mkv
Format : Matroska
Format version : Version 2
File size : 34.2 GiB
Duration : 1h 57mn
Overall bit rate : 41.6 Mbps
Movie name : Straw.Dogs.1971.1080p.Bluray.AVC.Remux
Encoded date : UTC 2011-09-25 04:45:46
Writing application : mkvmerge v4.9.1 ('Ich will') сборка от Jul 11 2011 23:53:15
Writing library : libebml v1.2.1 + libmatroska v1.1.1

Video
ID : 1
Format : AVC
Format/Info : Advanced Video Codec
Format profile : High@L4.1
Format settings, CABAC : Yes
Format settings, ReFrames : 4 frames
Codec ID : V_MPEG4/ISO/AVC
Duration : 1h 57mn
Bit rate mode : Variable
Bit rate : 37.2 Mbps
Maximum bit rate : 38.0 Mbps
Width : 1 920 pixels
Height : 1 080 pixels
Display aspect ratio : 16:9
Frame rate : 23.976 fps
Color space : YUV
Chroma subsampling : 4:2:0
Bit depth : 8 bits
Scan type : Progressive
Bits/(Pixel*Frame) : 0.748
Stream size : 30.6 GiB (89%)
Title : uralmix

Audio #1
ID : 2
Format : AC-3
Format/Info : Audio Coding 3
Mode extension : CM (complete main)
Codec ID : A_AC3
Duration : 1h 57mn
Bit rate mode : Constant
Bit rate : 192 Kbps
Channel(s) : 2 channels
Channel positions : Front: L R
Sampling rate : 48.0 KHz
Bit depth : 16 bits
Compression mode : Lossy
Stream size : 162 MiB (0%)
Title : ДВД Магия
Language : Russian

Audio #2
ID : 3
Format : AC-3
Format/Info : Audio Coding 3
Mode extension : CM (complete main)
Codec ID : A_AC3
Duration : 1h 57mn
Bit rate mode : Constant
Bit rate : 192 Kbps
Channel(s) : 2 channels
Channel positions : Front: L R
Sampling rate : 48.0 KHz
Bit depth : 16 bits
Compression mode : Lossy
Stream size : 162 MiB (0%)
Title : студия Ракурс (ЕА)
Language : Russian

Audio #3
ID : 4
Format : AC-3
Format/Info : Audio Coding 3
Mode extension : CM (complete main)
Codec ID : A_AC3
Duration : 1h 57mn
Bit rate mode : Constant
Bit rate : 192 Kbps
Channel(s) : 2 channels
Channel positions : Front: L R
Sampling rate : 48.0 KHz
Bit depth : 16 bits
Compression mode : Lossy
Stream size : 162 MiB (0%)
Title : авторский - Юрий Живов
Language : Russian

Audio #4
ID : 5
Format : AC-3
Format/Info : Audio Coding 3
Mode extension : CM (complete main)
Codec ID : A_AC3
Duration : 1h 57mn
Bit rate mode : Constant
Bit rate : 192 Kbps
Channel(s) : 2 channels
Channel positions : Front: L R
Sampling rate : 48.0 KHz
Bit depth : 16 bits
Compression mode : Lossy
Stream size : 162 MiB (0%)
Title : авторский - Алексей Михалев
Language : Russian

Audio #5
ID : 6
Format : AC-3
Format/Info : Audio Coding 3
Mode extension : CM (complete main)
Codec ID : A_AC3
Duration : 1h 57mn
Bit rate mode : Constant
Bit rate : 192 Kbps
Channel(s) : 2 channels
Channel positions : Front: L R
Sampling rate : 48.0 KHz
Bit depth : 16 bits
Compression mode : Lossy
Stream size : 162 MiB (0%)
Title : авторский - Юрий Толбин
Language : Russian

Audio #6
ID : 7
Format : AC-3
Format/Info : Audio Coding 3
Mode extension : CM (complete main)
Codec ID : A_AC3
Duration : 1h 57mn
Bit rate mode : Constant
Bit rate : 192 Kbps
Channel(s) : 2 channels
Channel positions : Front: L R
Sampling rate : 48.0 KHz
Bit depth : 16 bits
Compression mode : Lossy
Stream size : 162 MiB (0%)
Title : авторский - Андрей Гаврилов
Language : Russian

Audio #7
ID : 8
Format : DTS
Format/Info : Digital Theater Systems
Format profile : MA / Core
Codec ID : A_DTS
Duration : 1h 57mn
Bit rate mode : Variable
Bit rate : 2 422 Kbps / 1 510 Kbps
Channel(s) : 6 channels
Channel positions : Front: L C R, Side: L R, LFE
Sampling rate : 48.0 KHz
Bit depth : 24 bits
Compression mode : Lossless / Lossy
Language : English

Text
ID : 9
Format : UTF-8
Codec ID : S_TEXT/UTF8
Codec ID/Info : UTF-8 Plain Text
Language : English

Menu
00:00:00.000 : en:00:00:00.000
00:04:38.945 : en:00:04:38.945
00:10:46.604 : en:00:10:46.604
00:20:06.372 : en:00:20:06.372
00:21:20.988 : en:00:21:20.988
00:26:45.229 : en:00:26:45.229
00:33:11.323 : en:00:33:11.323
00:40:09.157 : en:00:40:09.157
00:43:00.036 : en:00:43:00.036
00:46:22.405 : en:00:46:22.405
00:52:56.256 : en:00:52:56.256
00:56:23.463 : en:00:56:23.463
01:06:35.200 : en:01:06:35.200
01:11:52.934 : en:01:11:52.934
01:17:23.597 : en:01:17:23.597
01:21:40.437 : en:01:21:40.437
01:27:58.398 : en:01:27:58.398
01:35:07.535 : en:01:35:07.535
01:38:34.283 : en:01:38:34.283
01:45:38.332 : en:01:45:38.332
pic pic pic

Этот торрент недоступен для скачивания без регистрации, однако доступен по публичной magnet-ссылке (источники с публичных трекеров). Перед использованием ссылки прочтите, пожалуйста Пользовательское соглашение, а также как можно дольше оставайтесь на раздаче! Для того, чтобы скачать сам торрент-файл (который видит больше источников), а также для того, чтобы поблагодарить релизера, вам необходимо зарегистрироваться. Если регистрироваться лень - вы можете также попробовать скачать релиз по нашим партнерским ссылкам ниже. Кроме того, зарегистрированным пользователям не показывается всплывающая реклама при скачивании.

[underverse.su].t43740.torrent
Трекер: Зарегистрирован   [ 09.09.2014 10:04 ]  

Статус: проверено (by Паукан at 09.09.2014 10:14)
Поблагодарили: 1 человек
Тип торрента: публичный - доступные источники с открытых трекеров: 
Размер: 34,25 GB (занимает 7,82 DVDR, для записи нужно 8 болванок DVDR/RW)
 
 
Похожие темы
Форум Тема Автор Торрент Отв. Посл. сооб.
Зарубежное кино [DVDRip, Low-Res HDRip, и т.д.] Соломенные псы / Straw Dogs (Род Лури / Rod Lurie) [2011 г., триллер, драма, криминал, HDRip] Dub 90ytr90
2 | 0

0 | 752

15

29.01.2014 07:53

Зарубежное кино [DVD / HDDVD / BD / Remux] Соломенные псы / Straw Dogs (Род Лури / Rod Lurie) [2011, триллер, драма, криминал, Blu-ray 1080p] uzi2009
0 | 1

2 | 1394

2

16.01.2014 11:50


Яндекс.Метрика powered by Sphinx


В Н И М А Н И Е
Сайт не распространяет и не хранит электронные версии произведений, а лишь бесплатно и без коммерческой выгоды (не требуя взамен платы,
SMS и т.д.) предоставляет доступ к создаваемому пользователями каталогу ссылок на торрент-файлы, которые содержат только списки хеш-сумм.
Убедительная просьба с жалобами обращаться напрямую к пользователю, разместившему торрент файл.

Вверх