Loading...
Error

Спартак / Spartacus (Стенли Кубрик / Stanley Kubrick) [1960, США, Исторический, BDRemux 1080p] 50th Anniversary Edition DUB (Советский дубляж) + original (eng) Sub (eng)

Статистика раздачи
Размер:  37,1 GB   |    Зарегистрирован:  3 года 11 месяцев   |    Скачан:  3 раза

Полного источника не было: 6 месяцев

Сидов:  0  |  0 KB/s  ]   Личеров:  0  |  0 KB/s  ]

* - сиды/пиры с внешних источников

   
 
Автор Сообщение

uzi2009 Пол:Муж

09-Сен-2014 10:24

Спартак / Spartacus / 50th Anniversary Edition

Страна: США
Студия: Universal Pictures
Жанр: Исторический
Год выпуска: 1960
Продолжительность: 03:16:37

Перевод: Профессиональный (дублированный) Доп.инфо о переводе Советский дубляж
Cубтитры: английские
Оригинальная аудиодорожка: английский

Режиссер: Стенли Кубрик

В ролях: Кирк Дуглас, Херберт Лом, Джин Симмонс, Лоуренс Оливье, Чарлз Лотон, Питер Устинов, Джон Гэвин, Нина Фош, Джон Айрлэнд, Вуди Строд, Тони Кертис

Описание: История гладиатора Спартака, его возлюбленной Варинии и честолюбивого римского полководца Красса. Непреодолимая тяга к свободе заставляет Спартака поднять легендарное восстание рабов, ставшее важнейшей вехой мировой истории.



Тип релиза: BDRemux 1080p
Контейнер: BDAV

Видео: MPEG-4 AVC Video 21995 kbps 1080p / 23,976 fps / 16:9 / High Profile 4.1
Аудио: DTS-HD Master Audio English 3492 kbps 5.1 / 48 kHz / 3492 kbps / 24-bit (DTS Core: 5.1 / 48 kHz / 1509 kbps / 24-bit) отдельным файлом
Аудио 2: русский AC3 2.0 192kbps 48kHz
Формат субтитров: prerendered (Blu-ray/PGS/SUP)
General
ID : 1
Complete name : Spartacus-50thAnniversaryEdition.BDRemux\Spartacus-50thAnnivEdn-BD50_советский дубляж.m2ts
Format : BDAV
Format/Info : Blu-ray Video
File size : 32.0 GiB
Duration : 3h 16mn
Overall bit rate : 23.3 Mbps
Maximum Overall bit rate : 35.5 Mbps

Video
ID : 4113 (0x1011)
Menu ID : 1 (0x1)
Format : AVC
Format/Info : Advanced Video Codec
Format profile : High@L4.1
Format settings, CABAC : Yes
Format settings, ReFrames : 4 frames
Format settings, GOP : M=2, N=26
Codec ID : 27
Duration : 3h 16mn
Bit rate mode : Variable
Bit rate : 22.2 Mbps
Maximum bit rate : 36.0 Mbps
Width : 1 920 pixels
Height : 1 080 pixels
Display aspect ratio : 16:9
Frame rate : 23.976 fps
Color space : YUV
Chroma subsampling : 4:2:0
Bit depth : 8 bits
Scan type : Progressive
Bits/(Pixel*Frame) : 0.446
Stream size : 30.4 GiB (95%)
Color primaries : BT.709-5, BT.1361, IEC 61966-2-4, SMPTE RP177
Transfer characteristics : BT.709-5, BT.1361
Matrix coefficients : BT.709-5, BT.1361, IEC 61966-2-4 709, SMPTE RP177

Audio
ID : 4352 (0x1100)
Menu ID : 1 (0x1)
Format : AC-3
Format/Info : Audio Coding 3
Mode extension : CM (complete main)
Codec ID : 129
Duration : 3h 16mn
Bit rate mode : Constant
Bit rate : 192 Kbps
Channel(s) : 2 channels
Channel positions : Front: L R
Sampling rate : 48.0 KHz
Bit depth : 16 bits
Stream size : 270 MiB (1%)

Text
ID : 4608 (0x1200)
Menu ID : 1 (0x1)
Format : PGS
Codec ID : 144
Language : English
pic pic pic pic pic

Этот торрент недоступен для скачивания без регистрации, однако доступен по публичной magnet-ссылке (источники с публичных трекеров). Перед использованием ссылки прочтите, пожалуйста Пользовательское соглашение, а также как можно дольше оставайтесь на раздаче! Для того, чтобы скачать сам торрент-файл (который видит больше источников), а также для того, чтобы поблагодарить релизера, вам необходимо зарегистрироваться. Если регистрироваться лень - вы можете также попробовать скачать релиз по нашим партнерским ссылкам ниже. Кроме того, зарегистрированным пользователям не показывается всплывающая реклама при скачивании.

[underverse.su].t43741.torrent
Трекер: Зарегистрирован   [ 09.09.2014 10:24 ]  

Статус: проверено (by Паукан at 09.09.2014 10:26)
Поблагодарили: пока никто не поблагодарил...
Тип торрента: публичный - доступные источники с открытых трекеров: 
Размер: 37,1 GB (занимает 8,47 DVDR, для записи нужно 9 болванок DVDR/RW)
 
 
Похожие темы
Форум Тема Автор Торрент Отв. Посл. сооб.
Зарубежные сериалы [BD / Remux / BDRip / WEB-DL / HDTV 1080/720р] Спартак / Spartacus (1-3 сезоны + Приквел: 1-39 серии из 39) (Джесси Уарн, Майкл Херст, Рик Джейкобсон) [2010-2013 г, Драма, приключения, история, BDRip 1080p] MVO (LostFilm) mihis
1 | 1

0 | 1163

5

17.12.2016 17:19

Классика зарубежного кино AVC Спартак / Spartacus (Стэнли Кубрик / Stanley Kubrick) [1960 г., драма, приключения, военный, биография, история, экранизация, BDRip-AVC] MVO + Original (Eng) + Sub (Rus, Ukr, Eng) Ripodelnia Ripodelnia
5 | 0

0 | 563

2

24.03.2018 17:17

Архив (HQ Underverse) Спартак / Spartacus (Стенли Кубрик) [1960 г., исторический, HD DVDRip] GUree
0 | 0

2 | 2520

1

05.11.2011 14:44


Яндекс.Метрика powered by Sphinx


В Н И М А Н И Е
Сайт не распространяет и не хранит электронные версии произведений, а лишь бесплатно и без коммерческой выгоды (не требуя взамен платы,
SMS и т.д.) предоставляет доступ к создаваемому пользователями каталогу ссылок на торрент-файлы, которые содержат только списки хеш-сумм.
Убедительная просьба с жалобами обращаться напрямую к пользователю, разместившему торрент файл.

Вверх