Loading...
Error

Весь этот джаз / All That Jazz (Боб Фосс / Bob Fosse) [1979, США, драма, мюзикл, BDRemux 1080p] [Criterion Collection] 2x MVO + 2x AVO (Михалев, Володарский) + Original (Eng) + Sub (Rus, Eng)

Статистика раздачи
Размер:  21,12 GB   |    Зарегистрирован:  3 года 11 месяцев   |    Скачан:  1 раз
Сидов:  3  |  0 KB/s  ]   Личеров:  0  |  0 KB/s  ]

* - сиды/пиры с внешних источников

   
 
Автор Сообщение

uzi2009 Пол:Муж

09-Сен-2014 11:00

Весь этот джаз / All That Jazz


Страна: США
Жанр: драма, мюзикл
Год выпуска: 1979
Продолжительность: 02:03:13

Перевод: Профессиональный (многоголосый закадровый) с российского издания DVD 20 Century Fox
Перевод: Профессиональный (многоголосый закадровый) Первый канал
Перевод: Авторский (одноголосый закадровый) Алексей Михалев
Перевод: Авторский (одноголосый закадровый) Леонид Володарский
Cубтитры: русские, английские
Оригинальная аудиодорожка: английский
Режиссер: Боб Фосс / Bob Fosse
В ролях: Рой Шайдер, Джессика Лэнг, Энн Рейнкинг, Клифф Горман, Лиленд Палмер, Джон Литгоу, Бен Верин, Макс Райт, Дебора Джеффнер, Роберт Хитт, Дэвид Маргулис, Роберт Ливайн

Описание: Талантливый бродвейский режиссер-хореограф Джо Гидеон, одержимый работой, востребован и популярен. Он ставит свое очередное грандиозное шоу, предвещающее очередной триумф. Пытаясь все успеть в этой жизни, Джо приходит к мысли, что работа, эстрада, любовь наполнены суетой. Но жизнь оказывается такой короткой...

IMDb || КиноПоиск
Тип релиза: BDRemux 1080p
Контейнер: MKV
Видео: MPEG-4 AVC Video, 1920x1080 at 23.976 fps, 21061 kbps
Аудио#1: Russian: 48 kHz, AC3, 5.1 ch, 448 kbps
Аудио#2: Russian: 48 kHz, АС3, 2.0 ch, 192 kbps |Первый канал
Аудио#3: Russian: 48 kHz, АС3, 2.0 ch, 192 kbps |Михалев
Аудио#4: Russian: 48 kHz, АС3, 2.0 ch, 192 kbps |Володарский
Аудио#5: English: 48 kHz, DTS-HD MA, 3.0 ch, 2335 kbps (DTS Core: 3.0 / 48 kHz / 1509 kbps / 24-bit)
Аудио#6: English: 48 kHz, AC3, 2.0 ch, 192 kbps |Commentary by Editor Alan Heim
Формат субтитров: softsub (SRT)
Сэмпл
За перевод Первого канала и Михалева спасибо Kordalan, за отечественный 5.1 - Шурпету.
Перевод Володарского доступен благодаря Ansent. Отсутствующие фрагменты (~40 секунд) в переводе дополнены Михалевым.
General
Unique ID : 218669864608270968636237854382088536352 (0xA48248B56E5534F68DCC087358184120)
Complete name : K:\All.That.Jazz.1979.Criterion.BDRemux. rutracker.mkv
Format : Matroska
Format version : Version 2
File size : 21.1 GiB
Duration : 2h 3mn
Overall bit rate mode : Variable
Overall bit rate : 24.5 Mbps
Movie name : Release for RuTracker
Encoded date : UTC 2014-09-07 21:15:38
Writing application : mkvmerge v5.0.1 ('Es ist Sommer') built on Nov 6 2011 16:23:40
Writing library : libebml v1.2.2 + libmatroska v1.3.0

Video
ID : 1
Format : AVC
Format/Info : Advanced Video Codec
Format profile : High@L4.1
Format settings, CABAC : Yes
Format settings, ReFrames : 4 frames
Codec ID : V_MPEG4/ISO/AVC
Duration : 2h 3mn
Bit rate mode : Variable
Maximum bit rate : 37.0 Mbps
Width : 1 920 pixels
Height : 1 080 pixels
Display aspect ratio : 16:9
Frame rate mode : Constant
Frame rate : 23.976 fps
Color space : YUV
Chroma subsampling : 4:2:0
Bit depth : 8 bits
Scan type : Progressive
Title : All.That.Jazz.1979.Criterion.BDRemux. rutracker
Language : English
Default : Yes
Forced : No

Audio #1
ID : 2
Format : AC-3
Format/Info : Audio Coding 3
Mode extension : CM (complete main)
Format settings, Endianness : Big
Codec ID : A_AC3
Duration : 2h 3mn
Bit rate mode : Constant
Bit rate : 448 Kbps
Channel(s) : 6 channels
Channel positions : Front: L C R, Side: L R, LFE
Sampling rate : 48.0 KHz
Bit depth : 16 bits
Compression mode : Lossy
Stream size : 395 MiB (2%)
Title : mvo, российское издание dvd 20 Century Fox
Language : Russian
Default : Yes
Forced : No

Audio #2
ID : 3
Format : AC-3
Format/Info : Audio Coding 3
Mode extension : CM (complete main)
Format settings, Endianness : Big
Codec ID : A_AC3
Duration : 2h 3mn
Bit rate mode : Constant
Bit rate : 192 Kbps
Channel(s) : 2 channels
Channel positions : Front: L R
Sampling rate : 48.0 KHz
Bit depth : 16 bits
Compression mode : Lossy
Stream size : 169 MiB (1%)
Title : mvo, Первый канал
Language : Russian
Default : No
Forced : No

Audio #3
ID : 4
Format : AC-3
Format/Info : Audio Coding 3
Mode extension : CM (complete main)
Format settings, Endianness : Big
Codec ID : A_AC3
Duration : 2h 3mn
Bit rate mode : Constant
Bit rate : 192 Kbps
Channel(s) : 2 channels
Channel positions : Front: L R
Sampling rate : 48.0 KHz
Bit depth : 16 bits
Compression mode : Lossy
Stream size : 169 MiB (1%)
Title : avo, А.Михалев
Language : Russian
Default : No
Forced : No

Audio #4
ID : 5
Format : AC-3
Format/Info : Audio Coding 3
Mode extension : CM (complete main)
Format settings, Endianness : Big
Codec ID : A_AC3
Duration : 2h 3mn
Bit rate mode : Constant
Bit rate : 192 Kbps
Channel(s) : 2 channels
Channel positions : Front: L R
Sampling rate : 48.0 KHz
Bit depth : 16 bits
Compression mode : Lossy
Stream size : 169 MiB (1%)
Title : avo, Л.Володарский
Language : Russian
Default : No
Forced : No

Audio #5
ID : 6
Format : DTS
Format/Info : Digital Theater Systems
Format profile : MA / Core
Mode : 16
Format settings, Endianness : Big
Codec ID : A_DTS
Duration : 2h 3mn
Bit rate mode : Variable
Bit rate : Unknown / 1 509 Kbps
Channel(s) : 3 channels
Channel positions : Front: L C R
Sampling rate : 48.0 KHz
Bit depth : 24 bits
Compression mode : Lossless / Lossy
Language : English
Default : No
Forced : No

Audio #6
ID : 7
Format : AC-3
Format/Info : Audio Coding 3
Mode extension : CM (complete main)
Format settings, Endianness : Big
Codec ID : A_AC3
Duration : 2h 3mn
Bit rate mode : Constant
Bit rate : 192 Kbps
Channel(s) : 2 channels
Channel positions : Front: L R
Sampling rate : 48.0 KHz
Bit depth : 16 bits
Compression mode : Lossy
Stream size : 169 MiB (1%)
Title : commentary
Language : English
Default : No
Forced : No

Text #1
ID : 8
Format : UTF-8
Codec ID : S_TEXT/UTF8
Codec ID/Info : UTF-8 Plain Text
Language : Russian
Default : No
Forced : No

Text #2
ID : 9
Format : UTF-8
Codec ID : S_TEXT/UTF8
Codec ID/Info : UTF-8 Plain Text
Language : English
Default : No
Forced : No

Menu
00:00:00.000 : en:"It's Showtime, Folks!"
00:01:58.493 : en:Cattle Call
00:10:24.415 : en:The Stages Of Death
00:14:45.259 : en:Late-Night Visitors
00:19:02.432 : en:The Silver Cloud
00:22:50.660 : en:"You Know I Love You, Katie"
00:27:42.202 : en:A New Song
00:32:14.807 : en:In The Studio With Michelle
00:35:59.740 : en:"Do It Again, Victoria"
00:38:46.449 : en:Rehearsal
00:40:59.707 : en:"What Guilt?"
00:45:20.426 : en:"Take Off With Us"
00:48:53.055 : en:Airotica
00:55:50.096 : en:"It's A Bomb"
00:57:55.430 : en:"Everything Old Is New Again"
01:03:14.999 : en:Read-Through
01:06:55.011 : en:"What Do Doctors Know?"
01:11:35.749 : en:Lucas Sergeant
01:13:59.810 : en:In The Hospital
01:18:56.148 : en:A Bad Review
01:25:54.607 : en:Heart Surgery
01:29:23.441 : en:"Hospital Hallucination, Take 1"
01:38:27.776 : en:Heart Attack
01:42:11.959 : en:Voyage Through The Hospital
01:49:07.249 : en:"Bye Bye Life"
02:00:26.469 : en:End Credits
pic pic pic pic pic

Этот торрент недоступен для скачивания без регистрации, однако доступен по публичной magnet-ссылке (источники с публичных трекеров). Перед использованием ссылки прочтите, пожалуйста Пользовательское соглашение, а также как можно дольше оставайтесь на раздаче! Для того, чтобы скачать сам торрент-файл (который видит больше источников), а также для того, чтобы поблагодарить релизера, вам необходимо зарегистрироваться. Если регистрироваться лень - вы можете также попробовать скачать релиз по нашим партнерским ссылкам ниже. Кроме того, зарегистрированным пользователям не показывается всплывающая реклама при скачивании.

[underverse.su].t43743.torrent
Трекер: Зарегистрирован   [ 09.09.2014 11:00 ]  

Статус: проверено (by матроскин at 09.09.2014 15:03)
Поблагодарили: пока никто не поблагодарил...
Тип торрента: публичный - доступные источники с открытых трекеров: 
Размер: 21,12 GB (занимает 4,83 DVDR, для записи нужно 5 болванок DVDR/RW)
 
 
Похожие темы
Форум Тема Автор Торрент Отв. Посл. сооб.
T Зарубежное кино [DVDRip, Low-Res HDRip, и т.д.] Весь этот мир / Everything, Everything (Стелла Меги) [2017 г., драма, мелодрама, HDRip] Dub (звук с TS) makkol
25 | 3

0 | 765

5

03.08.2017 14:45

Зарубежное кино [DVDRip, Low-Res HDRip, и т.д.] Весь этот джаз / All That Jazz (Боб Фосси / Bob Fosse) [1979 г., мюзикл, драма, музыка, BDRip] MVO (DVD) + Original (Eng) 90ytr90
1 | 0

0 | 505

6

04.02.2015 11:08

T Зарубежное кино [DVDRip, Low-Res HDRip, и т.д.] Весь этот мир / Everything, Everything (Стелла Меги) [2017 г., драма, мелодрама, BDRip] Dub (iTunes) makkol
18 | 3

0 | 713

10

29.08.2017 11:03

T Зарубежное кино [DVDRip, Low-Res HDRip, и т.д.] Весь этот мир / Everything, Everything (Стелла Меги) [2017 г., драма, мелодрама, BDRip-AVC] Dub (iTunes) + Original + Sub makkol
3 | 2

0 | 743

1

29.08.2017 11:15

T Зарубежное кино [HDDVDRip / BDRip / WEB-DL / HDTV 1080/720р] Весь этот мир / Everything, Everything (Стелла Меги) [2017 г., драма, мелодрама, BDRip 1080p] Dub (звук с TS) makkol
1 | 3

0 | 757

3

03.08.2017 14:54

T Зарубежное кино [HDDVDRip / BDRip / WEB-DL / HDTV 1080/720р] Весь этот мир / Everything, Everything (Стелла Меги) [2017 г., драма, мелодрама, BDRip 1080p] Dub (iTunes) + Original + Sub makkol
3 | 3

0 | 661

5

29.08.2017 11:22

T Зарубежное кино [HDDVDRip / BDRip / WEB-DL / HDTV 1080/720р] Весь этот мир / Everything, Everything (Стелла Меги) [2017 г., драма, мелодрама, BDRip 720p] Dub (iTunes) + Original + Sub makkol
9 | 3

0 | 819

5

29.08.2017 11:29

T Новинки кино [CAMRip, TS, DVDScr, WP, TC] Весь этот мир / Everything, Everything (Стелла Меги) [2017 г., драма, мелодрама, CAMRip] Dub makkol
10 | 3

0 | 781

4

16.06.2017 22:30


Яндекс.Метрика powered by Sphinx


В Н И М А Н И Е
Сайт не распространяет и не хранит электронные версии произведений, а лишь бесплатно и без коммерческой выгоды (не требуя взамен платы,
SMS и т.д.) предоставляет доступ к создаваемому пользователями каталогу ссылок на торрент-файлы, которые содержат только списки хеш-сумм.
Убедительная просьба с жалобами обращаться напрямую к пользователю, разместившему торрент файл.

Вверх