Loading...
Error

Заточенные кепки (Острые козырьки) / Peaky Blinders (2 сезон: 1-6 серии из 6) (Отто Баферст, Том Харпер) [2014 г., Драма, криминал, HDTVRip 720] MVO (RUS) + Original (ENG) |LostFilm|

Статистика раздачи
Размер:  11,89 GB   |    Зарегистрирован:  4 года 2 месяца   |    Скачан:  14 раз

Полного источника не было: 5 месяцев 21 день

Сидов:  0  |  0 KB/s  ]   Личеров:  0  |  0 KB/s  ]

* - сиды/пиры с внешних источников

   
 
Автор Сообщение

viktor.r-79 Пол:Муж

03-Ноя-2014 21:16

Заточенные кепки / Peaky Blinders

Год выпуска: 2014
Жанр: Драма, криминал
Страна: Великобритания ,
Режиссер: Отто Баферст, Том Харпер
В ролях:
Киллиан Мёрфи, Сэм Нилл, Хелен МакКрори, Аннабелль Уоллис, Иддо Голдберг, Пол Андерсон, Софи Рандл, Джо Коул, Чарли Крид-Майлз, Сэмюэл Эдвард-Кук, Энди Найман, Томми Флэнаган, Элфи Эванс-Мис, Тони Питтс, Нед Деннехи, Ли Болтон, Эрик Кэмпбелл, Пол Чадвик, Кевин Меткалф, Джеффри Постлтуэйт, Дэвид Доусон, Эйми-Ффион Эдвардс, Наташа О`Киффи, Перри Фицпатрик

Сюжет фильма:
Британский сериал о криминальном мире Бирмингема 20-х годов прошлого века, в котором многолюдная семья Шелби стала одной из самых жестоких и влиятельных гангстерских банд послевоенного времени. Фирменным знаком группировки, промышлявшей грабежами и азартными играми, стали зашитые в козырьки лезвия.

Качество видео: HDTVRip 720
Формат: MKV
Видео: AVC, ~ 4041 Кбит/с, 1280x720
Аудио: AC3, 2 ch, 384 Кбит/с |RUS|
Аудио: AC3, 2 ch, 384 Кбит/с |ENG|
Продолжительность: 6 х ~ 00:59:00
Перевод: Профессиональный многоголосый |LostFilm|

Релиз группы:
Общее
Уникальный идентификатор : 247565299773891250336815778104864039587 (0xBA3F57A7B1F149C6ADD275F6FA7662A3)
Полное имя : D:\торрент\Peaky.Blinders.S02.720p.rus.LostFilm.TV\Peaky.Blinders.S02E03.720p.rus.LostFilm.TV.mkv
Формат : Matroska
Версия формата : Version 2
Размер файла : 1,99 Гбайт
Продолжительность : 59 м.
Общий поток : 4812 Кбит/сек
Дата кодирования : UTC 2014-10-19 18:52:14
Программа кодирования : mkvmerge v4.2.0 ('No Talking') сборка от Jul 28 2010 18:38:23
Библиотека кодирования : libebml v1.0.0 + libmatroska v1.0.0

Видео
Идентификатор : 1
Формат : AVC
Формат/Информация : Advanced Video Codec
Профиль формата : High@L3.1
Параметр CABAC формата : Да
Параметр ReFrames формата : 4 кадра
Идентификатор кодека : V_MPEG4/ISO/AVC
Продолжительность : 59 м.
Битрейт : 4041 Кбит/сек
Ширина : 1280 пикселей
Высота : 720 пикселей
Соотношение сторон : 16:9
Частота кадров : 25,000 кадров/сек
Цветовое пространство : YUV
Субдискретизация насыщенности : 4:2:0
Битовая глубина : 8 бит
Тип развёртки : Прогрессивная
Бит/(Пиксели*Кадры) : 0.175
Размер потока : 1,63 Гбайт (82%)
Библиотека кодирования : x264 core 112 r1834 a51816a
Настройки программы : cabac=1 / ref=1 / deblock=1:0:0 / analyse=0x3:0x113 / me=hex / subme=7 / psy=1 / psy_rd=1.00:0.00 / mixed_ref=0 / me_range=16 / chroma_me=1 / trellis=1 / 8x8dct=1 / cqm=0 / deadzone=21,11 / fast_pskip=1 / chroma_qp_offset=-2 / threads=6 / sliced_threads=0 / nr=0 / decimate=1 / interlaced=0 / constrained_intra=0 / bframes=3 / b_pyramid=2 / b_adapt=1 / b_bias=0 / direct=1 / weightb=1 / open_gop=0 / weightp=2 / keyint=250 / keyint_min=25 / scenecut=40 / intra_refresh=0 / rc_lookahead=40 / rc=2pass / mbtree=1 / bitrate=4041 / ratetol=1.0 / qcomp=0.60 / qpmin=0 / qpmax=51 / qpstep=4 / cplxblur=20.0 / qblur=0.5 / ip_ratio=1.40 / aq=1:1.00
Default : Да
Forced : Нет

Аудио #1
Идентификатор : 2
Формат : AC-3
Формат/Информация : Audio Coding 3
Расширение режима : CM (complete main)
Идентификатор кодека : A_AC3
Продолжительность : 59 м.
Вид битрейта : Постоянный
Битрейт : 384 Кбит/сек
Каналы : 2 канала
Расположение каналов : Front: L R
Частота : 48,0 КГц
Битовая глубина : 16 бит
Метод сжатия : С потерями
Размер потока : 162 Мбайт (8%)
Default : Да
Forced : Нет

Аудио #2
Идентификатор : 3
Формат : AC-3
Формат/Информация : Audio Coding 3
Расширение режима : CM (complete main)
Идентификатор кодека : A_AC3
Продолжительность : 59 м.
Вид битрейта : Постоянный
Битрейт : 384 Кбит/сек
Каналы : 2 канала
Расположение каналов : Front: L R
Частота : 48,0 КГц
Битовая глубина : 16 бит
Метод сжатия : С потерями
Размер потока : 162 Мбайт (8%)
Default : Нет
Forced : Нет
pic pic pic
Для увеличения картинки щелкните мышкой по превью

Этот торрент недоступен для скачивания без регистрации, однако доступен по публичной magnet-ссылке (источники с публичных трекеров). Перед использованием ссылки прочтите, пожалуйста Пользовательское соглашение, а также как можно дольше оставайтесь на раздаче! Для того, чтобы скачать сам торрент-файл (который видит больше источников), а также для того, чтобы поблагодарить релизера, вам необходимо зарегистрироваться. Если регистрироваться лень - вы можете также попробовать скачать релиз по нашим партнерским ссылкам ниже. Кроме того, зарегистрированным пользователям не показывается всплывающая реклама при скачивании.

[underverse.su].t46107.torrent
Трекер: Зарегистрирован   [ 11.11.2014 04:15 ]  

Статус: проверено (by nemos at 11.11.2014 08:15)
Поблагодарили: 2 человека
Тип торрента: публичный - доступные источники с открытых трекеров: 
Размер: 11,89 GB (занимает 2,72 DVDR, для записи нужно 3 болванки DVDR/RW)
 
 
Похожие темы
Форум Тема Автор Торрент Отв. Посл. сооб.
Зарубежные сериалы Заточенные кепки / Острые козырьки / Peaky Blinders [сезон 1 / серии 01-06 (6)] (Отто Баферст, Том Харпер) [2013 г., драма, криминал, WEB-DLRip] MVO (AlexFilm) + Original 90ytr90
3 | 0

0 | 2098

39

16.11.2013 08:05



Последний раз редактировалось: viktor.r-79 (11.11.2014 14:24), всего редактировалось 3 раз(а)

viktor.r-79 Пол:Муж

11-Ноя-2014 04:16

добавил 6 серию сезон закончен.

Яндекс.Метрика powered by Sphinx


В Н И М А Н И Е
Сайт не распространяет и не хранит электронные версии произведений, а лишь бесплатно и без коммерческой выгоды (не требуя взамен платы,
SMS и т.д.) предоставляет доступ к создаваемому пользователями каталогу ссылок на торрент-файлы, которые содержат только списки хеш-сумм.
Убедительная просьба с жалобами обращаться напрямую к пользователю, разместившему торрент файл.

Вверх