Loading...
Error

Библиотекари / The Librarians / Сезон 1 / Серии: 1-10 из 10 (Джонатан Фрейкс, Марк Роскин, Дин Девлин) [2014 г., Фантастика, Приключения, WEB-DL 720p] MVO (RUS, LostFilm) + Original (ENG)

Статистика раздачи
Размер:  15,51 GB   |    Зарегистрирован:  3 года 6 месяцев   |    Скачан:  20 раз

Полного источника не было: 11 месяцев

Сидов:  0  |  0 KB/s  ]   Личеров:  0  |  0 KB/s  ]

* - сиды/пиры с внешних источников

   
 
Автор Сообщение

Ведьмочка Пол:Жен

07-Май-2015 07:05




Библиотекари / The Librarians
«Filing evil under history»



Страна: США
Год выпуска: 2014
Жанр: Фантастика, Приключения
Продолжительность: ~00:55:00 серия
Режиссёр: Джонатан Фрейкс, Марк Роскин, Дин Девлин
В ролях: Ноа Уайли, Ребекка Ромейн, Кристиан Кэйн, Линди Бут, Джон Ким, Джон Ларрокетт, Мэтт Фрюэр, Лесли-Энн Брандт, Боб Ньюхарт, Триша Хелфер, Хейли Уэбб, Рене Обержонуа

Сюжет фильма:
Действие разворачивается в Нью-Йорке, где под зданием обычной публичной библиотеки располагается штаб-квартира таинственного ордена. Главный хранитель Флинн Карсен (Ноа Уайл) возглавляет эту организацию уже десять лет. Его задача — защищать сверхъестественные артефакты (Копье судьбы, Ковчег завета, Эскалибур и другие) от врагов, в том числе от невероятно опасного Змеиного Братства. Оно давно мечтает заполучить ценные реликвии, чтобы использовать их магию в своих целях, а Флинн не справляется в одиночку. Тогда к нему на помощь приходит агент по борьбе с терроризмом Ив Бэрд (Ребекка Ромейн). Вместе они подбирают трех других кандидатов на пост верховного библиотекаря. Так, к команде присоединяется Джейк Стоун (Кристиан Кэйн) — работник нефтяной вышки с IQ 190 и энциклопедическими знаниями в области истории искусств. Вместе с ним на защиту артефактов встает Кассандра Киллиан (Линди Бут) — гений математики с фотографической памятью и способностью создавать визуальные и сенсорные галлюцинации. И, наконец, третьим кандидатом становится Эзекиль Джонс (Джон Ким) — специалист по современным технологиям и вор высшего класса. Вместе они должны найти украденные артефакты и нарушить коварные планы Змеиного Братства.

Озвучивание:
  • Профессиональный, Многоголосный, Русский [LostFilm]
  • Оригинал, Английский

Качество видео: WEB-DL 720p
Формат: MKV
Видео: AVC, 1280x716 (16:9), 23.976 fps, ~4000 Кбит/сек
Аудио #1: AC-3, 384 Кбит/сек, 6 Каналов, 48.0 КГц
Аудио #2: AC-3, 384 Кбит/сек, 6 Каналов, 48.0 КГц




1. И корона короля Артура /And the Crown of King Arthur
2. И меч в камне /And the Sword in the Stone
3. И рога дилеммы /And the Horns of a Dilemma
4. И полуночное дело Санты /And Santa's Midnight Run
5. И яблоко раздора /And the Apple of Discord
6. И сказки судьбы /And the Fables of Doom
7. И Правило Трёх /And the Rule of Three
8. И сердце тьмы /And the Heart of Darkness
9. И Город света /And the City of Light
10. И прялка судьбы /And the Loom of Fate


General
Unique ID : 228249910896970760570910308827811636520 (0xABB755753A92429BB01AFFB777456528)
Complete name : \The.Librarians.LostFilm\The.Librarians.s01e10.HD720p.WEB-DL.Rus.LostFilm.DD.5.1.mkv
Format : Matroska
Format version : Version 4 / Version 2
File size : 1.53 GiB
Duration : 44mn 30s
Overall bit rate : 4 908 Kbps
Encoded date : UTC 2015-02-11 18:35:27
Writing application : mkvmerge v7.5.0 ('Glass Culture') 64bit built on Jan 4 2015 16:48:44
Writing library : libebml v1.3.1 + libmatroska v1.4.2
_STATISTICS_WRITING_APP : mkvmerge v7.5.0 ('Glass Culture') 64bit built on Jan 4 2015 16:48:44
_STATISTICS_WRITING_DATE_UT : 2015-02-11 18:35:27
_STATISTICS_TAGS : BPS DURATION NUMBER_OF_FRAMES NUMBER_OF_BYTES
DURATION : 00:44:30.528000000
NUMBER_OF_FRAMES : 83454
NUMBER_OF_BYTES : 128185344

Video
ID : 1
Format : AVC
Format/Info : Advanced Video Codec
Format profile : High@L3.1
Format settings, CABAC : No
Format settings, ReFrames : 2 frames
Codec ID : V_MPEG4/ISO/AVC
Duration : 44mn 30s
Bit rate : 4 042 Kbps
Width : 1 280 pixels
Height : 716 pixels
Display aspect ratio : 16:9
Frame rate mode : Constant
Frame rate : 23.976 fps
Color space : YUV
Chroma subsampling : 4:2:0
Bit depth : 8 bits
Scan type : Progressive
Bits/(Pixel*Frame) : 0.184
Stream size : 1.26 GiB (82%)
Language : English
Default : Yes
Forced : No
Color primaries : BT.709
Transfer characteristics : BT.709
Matrix coefficients : BT.709
Color range : Limited

Audio #1
ID : 2
Format : AC-3
Format/Info : Audio Coding 3
Mode extension : CM (complete main)
Format settings, Endianness : Big
Codec ID : A_AC3
Duration : 44mn 30s
Bit rate mode : Constant
Bit rate : 384 Kbps
Channel(s) : 6 channels
Channel positions : Front: L C R, Side: L R, LFE
Sampling rate : 48.0 KHz
Bit depth : 16 bits
Compression mode : Lossy
Stream size : 122 MiB (8%)
Title : LostFilm 5.1
Language : Russian
Default : Yes
Forced : No

Audio #2
ID : 3
Format : AC-3
Format/Info : Audio Coding 3
Mode extension : CM (complete main)
Format settings, Endianness : Big
Codec ID : A_AC3
Duration : 44mn 30s
Bit rate mode : Constant
Bit rate : 384 Kbps
Channel(s) : 6 channels
Channel positions : Front: L C R, Side: L R, LFE
Sampling rate : 48.0 KHz
Bit depth : 16 bits
Compression mode : Lossy
Stream size : 122 MiB (8%)
Language : English
Default : No
Forced : No


picpicpicpicpic
Для увеличения картинки щелкните мышкой по превью

Этот торрент недоступен для скачивания без регистрации, однако доступен по публичной magnet-ссылке (источники с публичных трекеров). Перед использованием ссылки прочтите, пожалуйста Пользовательское соглашение, а также как можно дольше оставайтесь на раздаче! Для того, чтобы скачать сам торрент-файл (который видит больше источников), а также для того, чтобы поблагодарить релизера, вам необходимо зарегистрироваться. Если регистрироваться лень - вы можете также попробовать скачать релиз по нашим партнерским ссылкам ниже. Кроме того, зарегистрированным пользователям не показывается всплывающая реклама при скачивании.

[underverse.su].t54404.torrent
Трекер: Зарегистрирован   [ 07.05.2015 07:05 ]  

Статус: проверено (by Ведьмочка at 07.05.2015 07:06)
Поблагодарили: 1 человек
Тип торрента: публичный - доступные источники с открытых трекеров: 
Размер: 15,51 GB (занимает 3,54 DVDR, для записи нужно 4 болванки DVDR/RW)
 
 
Похожие темы
Форум Тема Автор Торрент Отв. Посл. сооб.
T Зарубежное кино [DVDRip, Low-Res HDRip, и т.д.] Библиотека Паскаля / Bibliotheque Pascal (Саболч Хайду / Szabolcs Hajdu) [2010 г., драма, WEB-DLRip] MVO (iTunes) 90ytr90
1 | 0

0 | 530

0

18.12.2016 10:55

T Зарубежное кино [DVDRip, Low-Res HDRip, и т.д.] Библиотека Паскаля / Bibliotheque Pascal (Саболч Хайду / Szabolcs Hajdu) [2010 г., драма, WEB-DLRip] MVO (iTunes) 90ytr90
1 | 0

0 | 632

1

17.12.2016 18:41

Зарубежные сериалы Библиотекари / The Librarians / Сезон 1 (1-10 серии из 10) (Джонатан Фрейкс, Марк Роскин, Дин Девлин) [2014 г., фантастика, приключения, WEB-DLRip] MVO older
3 | 0

0 | 1059

14

15.09.2015 09:20

Точные, естественные и инженерные науки Библиотека фонда "Династия" [61 книга] [2006-2015 г., научно-популярная литература, FB2, DJVU, PDF] RUS Паукан
2 | 0

0 | 1637

48

16.04.2015 15:53

Коллекции книг, тематические подборки Библиотека дальневосточного романа (23 книги) [1966-1990 г., История, Русская литература, Приключения, Советская проза, PDF, FB2] RUS Evgenii82
1 | 0

0 | 1276

13

11.10.2016 13:21

Коллекции книг, тематические подборки Библиотека российского романа (86 книг) [1971-1991 г., Советская проза, исторические романы, FB2] RUS Evgenii82
1 | 0

0 | 1479

22

11.10.2016 12:53

Коллекции книг, тематические подборки Библиотека: "Жизнь замечательных людей (ЖЗЛ)" /1476 книг/ [1890-2016 г., Биография, мемуары, FB2, RTF, PDF, DjVu, XLSX] RUS (Обновляемая!) vvmalysh
1 | 0

13 | 8841

6

14.07.2017 07:26

Коллекции книг, тематические подборки Библиотека научного креациониста [500 книг] [2018 г., креационизм, история, науковедение, естествознание, физика, математика, документалистика, религия, PDF, DJVU, FB2, TXT, RTF, HTML] RUS Паукан
3 | 0

0 | 628

14

24.02.2018 18:03

Энциклопедии и словари Библиотека интеллектуала [2 тома] [2010 г., энциклопедии, справочники, FB2] RUS Паукан
1 | 0

0 | 1340

48

13.06.2015 07:23

Архив (художественные фильмы) Библиотекарь 3: Проклятье чаши Иуды / The Librarian: The Curse of the Judas (Джонатан Фрайкс /Jonathan Frakes) [2008 г., Боевик / Фэнтези / Комедия, HDTVRip] GanibalKing
0 | 0

1 | 1660

8

16.06.2011 08:08


Яндекс.Метрика powered by Sphinx


В Н И М А Н И Е
Сайт не распространяет и не хранит электронные версии произведений, а лишь бесплатно и без коммерческой выгоды (не требуя взамен платы,
SMS и т.д.) предоставляет доступ к создаваемому пользователями каталогу ссылок на торрент-файлы, которые содержат только списки хеш-сумм.
Убедительная просьба с жалобами обращаться напрямую к пользователю, разместившему торрент файл.

Вверх