Loading...
Error

Том и Джерри: Шпион Квест / Tom and Jerry: Spy Quest (Спайк Брандт, Тони Червоне) [2015 г., мультфильм, приключения, комедия, семейный, WEB-DL 1080p] MVO + Original

Статистика раздачи
Размер:  3,08 GB   |    Зарегистрирован:  3 года 1 месяц   |    Скачан:  42 раза

Полного источника не было: 4 месяца 21 день

Сидов:  0  |  0 KB/s  ]   Личеров:  0  |  0 KB/s  ]

* - сиды/пиры с внешних источников

   
 
Автор Сообщение

makkol Пол:Муж

03-Июл-2015 11:52

Том и Джерри: Шпион Квест / Tom and Jerry: Spy Quest


Год выпуска: 2015
Жанр: мультфильм, приключения, комедия, семейный
Производство: США [Warner Bros. Animation]
Режиссер: Спайк Брандт, Тони Червоне
Роли озвучивали: Риз Хартвиг, Арни Пэнтоджа, Джеймс Хонг, Эрик Боза, Мишель Д. Хенкс
Сюжет фильма:
Ещё один день на пляже для проблемной парочки, пока Том и Джерри не сталкиваются со шпионами Джонни Квестом, Хаджи и Бандитом. Когда давний враг семьи Квестов, доктор Зин, узнаёт о том, что у Бентона Квеста есть орудие решения энергетических проблем мира, он посылает армию злобных кошек украсть его и взять в плен Бентона вместе с охранником Рэйсом Бэнноном. Джонни и его новые пушистые друзья отправляются на опасные поиски отца в попытке спасти мир!

  • Мировая премьера: 9 июня 2015


Качество видео: WEB-DL 1080p

Продолжительность: 01:12:53
Формат: MKV
Видео: MPEG-4 AVC, 1912x1072, 23.976 fps, 5166 kbps
Аудио #1: русский, профессиональный многоголосый закадровый (iTunes), AC3 5.1, 48 kHz, 384 kbps
Аудио #2: английский, оригинал, AC3 5.1, 48 kHz, 384 kbps

Код:

Общее
Уникальный идентификатор                 : 232729452878887986324353692771904031167 (0xAF160FEDEA018DFAB84F6CFE92C689BF)
Формат                                   : Matroska
Версия формата                           : Version 2
Размер файла                             : 3,08 Гбайт
Продолжительность                        : 1 ч. 12 м.
Общий поток                              : 6054 Кбит/сек
Дата кодирования                         : UTC 2015-07-02 20:24:51
Программа кодирования                    : mkvmerge v3.4.0 ('Rapunzel') сборка от May 15 2010 09:38:20
Библиотека кодирования                   : libebml v0.8.0 + libmatroska v0.9.0

Видео
Идентификатор                            : 2
Формат                                   : AVC
Формат/Информация                        : Advanced Video Codec
Профиль формата                          : High@L4
Параметр CABAC формата                   : Да
Параметр ReFrames формата                : 4 кадра
Идентификатор кодека                     : V_MPEG4/ISO/AVC
Продолжительность                        : 1 ч. 12 м.
Битрейт                                  : 5166 Кбит/сек
Ширина                                   : 1912 пикселей
Высота                                   : 1072 пикселя
Соотношение сторон                       : 16:9
Режим частоты кадров                     : Постоянный
Частота кадров                           : 23,976 кадра/сек
Цветовое пространство                    : YUV
Субдискретизация насыщенности            : 4:2:0
Битовая глубина                          : 8 бит
Тип развёртки                            : Прогрессивная
Бит/(Пиксели*Кадры)                      : 0.105
Размер потока                            : 2,63 Гбайт (85%)
Язык                                     : English

Аудио #1
Идентификатор                            : 1
Формат                                   : AC-3
Формат/Информация                        : Audio Coding 3
Расширение режима                        : CM (complete main)
Параметр Endianness формата              : Big
Идентификатор кодека                     : A_AC3
Продолжительность                        : 1 ч. 12 м.
Вид битрейта                             : Постоянный
Битрейт                                  : 384 Кбит/сек
Каналы                                   : 6 каналов
Расположение каналов                     : Front: L C R, Side: L R, LFE
Частота                                  : 48,0 КГц
Метод сжатия                             : С потерями
Размер потока                            : 200 Мбайт (6%)
Заголовок                                : Русский: AC3, 384 Kb/s (6 ch)
Язык                                     : Russian
Default                                  : Да
Forced                                   : Да

Аудио #2
Идентификатор                            : 3
Формат                                   : AC-3
Формат/Информация                        : Audio Coding 3
Расширение режима                        : CM (complete main)
Параметр Endianness формата              : Big
Идентификатор кодека                     : A_AC3
Продолжительность                        : 1 ч. 12 м.
Вид битрейта                             : Постоянный
Битрейт                                  : 384 Кбит/сек
Каналы                                   : 6 каналов
Расположение каналов                     : Front: L C R, Side: L R, LFE
Частота                                  : 48,0 КГц
Метод сжатия                             : С потерями
Размер потока                            : 200 Мбайт (6%)
Заголовок                                : Английский: 384 Kb/s (6 ch)
Язык                                     : English

Меню
00:00:00.000                             : en:1
00:07:45.000                             : en:2
00:13:51.000                             : en:3
00:20:37.000                             : en:4
00:27:31.000                             : en:5
00:34:56.000                             : en:6
00:39:26.000                             : en:7
00:45:32.000                             : en:8
00:54:51.000                             : en:9
01:01:04.000                             : en:10
01:05:46.000                             : en:11
01:10:06.000                             : en:12
picpicpicpicpic
Для увеличения картинки щелкните мышкой по превью

Этот торрент недоступен для скачивания без регистрации, однако доступен по публичной magnet-ссылке (источники с публичных трекеров). Перед использованием ссылки прочтите, пожалуйста Пользовательское соглашение, а также как можно дольше оставайтесь на раздаче! Для того, чтобы скачать сам торрент-файл (который видит больше источников), а также для того, чтобы поблагодарить релизера, вам необходимо зарегистрироваться. Если регистрироваться лень - вы можете также попробовать скачать релиз по нашим партнерским ссылкам ниже. Кроме того, зарегистрированным пользователям не показывается всплывающая реклама при скачивании.

[underverse.su].t55627.torrent
Трекер: Зарегистрирован   [ 03.07.2015 11:52 ]  

Статус: T временная (by makkol at 18.08.2015 14:34)
Поблагодарили: пока никто не поблагодарил...
Тип торрента: публичный - доступные источники с открытых трекеров: 
Размер: 3,08 GB (занимает 0,7 DVDR, для записи нужно 1 болванка DVDR/RW)
 
 
Похожие темы
Форум Тема Автор Торрент Отв. Посл. сооб.
Зарубежные мультфильмы Том и Джерри: Робин Гуд и мышь-весельчак / Tom And Jerry: Robin Hood And His Merry Mouse (Спайк Брандт, Тони Червоне) [2012 г., мультфильм, DVDRip] Dub [лицензия] 90ytr90
1 | 0

0 | 1651

107

01.11.2012 18:31

Зарубежные мультфильмы Том и Джерри: Трепещи, Усатый! / Tom and Jerry in Shiver Me Whiskers (Скотт Джеральдс) [2006 г., Мультфильм, комедия, семейный, BDRip-AVC] Dub + Dub Чертёнок
1 | 0

0 | 960

24

26.04.2013 16:47

Зарубежные мультфильмы Том и Джерри: Гигантское приключение / Tom and Jerry's Giant Adventure (Спайк Брандт, Тони Сервоне ) [2013 г., Мультфильм, Приключения, Семейный, WEBDLRip] VO Чертёнок
0 | 0

0 | 990

63

13.07.2013 06:01

Зарубежные мультфильмы Том и Джерри: Потерянный дракон / Tom & Jerry: The Lost Dragon (Тони Червоне) [2014 г., мультфильм, DVDRip] VO (Lord32x) 90ytr90
3 | 0

1 | 1079

47

28.08.2014 15:22

T Зарубежные мультфильмы Том и Джерри: Шпион Квест / Tom and Jerry: Spy Quest (Спайк Брандт, Тони Червоне) [2015 г., мультфильм, приключения, комедия, семейный, WEB-DLRip] MVO makkol
14 | 0

0 | 1180

53

03.07.2015 11:42

T Зарубежные мультфильмы Том и Джерри: Вилли Вонка и шоколадная фабрика / Tom and Jerry: Willy Wonka and the Chocolate Factory (Спайк Брандт / Spike Brandt) [2017 г., мультфильм, мюзикл, комедия, приключения, семейный,... 90ytr90
33 | 2

0 | 662

15

03.07.2017 18:33

Зарубежные мультфильмы Том и Джерри: Вилли Вонка и шоколадная фабрика / Tom and Jerry: Willy Wonka and the Chocolate Factory (Спайк Брандт / Spike Brandt) [2017 г., мультфильм, мюзикл, комедия, приключения, семейный,... 90ytr90
51 | 1

0 | 698

20

16.12.2017 19:13

Мультсериалы Том и Джерри. Полная коллекция / Tom And Jerry. Classic Collection (Джозеф Барбера, Уильям Ханна, Джин Дейч, Чак Джонс) [1940-1967 г., комедия, мультфильмы, DVDRip] MVO Печаль'ka
7 | 1

0 | 2099

41

07.08.2013 13:04

Мультфильмы [HDDVDRip / BDRip / WEB-DL / HDTV 1080/720р] Том и Джерри: Гигантское приключение / Tom and Jerry's Giant Adventure (Спайк Брандт, Тони Сервоне) [2013 г., мультфильм, приключения, семейный, BDRip 720р] DuB Чертёнок
0 | 0

0 | 1377

52

17.08.2013 19:33

Архив (мультфильмы) Том и Джерри: Шерлок Холмс / Tom & Jerry Meet Sherlock Holmes (Джефф Сьергей) [2010 г., Комедия, приключения, семейный, мультфильм, DVDRip] maddd
0 | 0

1 | 1577

20

31.01.2018 17:08


Яндекс.Метрика powered by Sphinx


В Н И М А Н И Е
Сайт не распространяет и не хранит электронные версии произведений, а лишь бесплатно и без коммерческой выгоды (не требуя взамен платы,
SMS и т.д.) предоставляет доступ к создаваемому пользователями каталогу ссылок на торрент-файлы, которые содержат только списки хеш-сумм.
Убедительная просьба с жалобами обращаться напрямую к пользователю, разместившему торрент файл.

Вверх