Loading...
Error

Игра престолов / Game of Thrones (Сезон 1-5, серии 1-50 из 50) (Тим Ван Паттен, Алан Тейлор, Брайан Кирк) [2011 - 2015 г., Фэнтези, история, WEB-DL 720p] MVO (LostFilm)

Статистика раздачи
Размер:  79,18 GB   |    Зарегистрирован:  3 года 2 месяца   |    Скачан:  62 раза

Полного источника не было: 1 месяц 10 дней

Сидов:  0  |  0 KB/s  ]   Личеров:  0  |  0 KB/s  ]

* - сиды/пиры с внешних источников

   
 
Автор Сообщение

K7SoLoN Пол:Муж

06-Сен-2015 12:27

Игра престолов / Game of Thrones (Сезон 1-5, серии 1-50 из 50)


Год выпуска: 2011 - 2015
Жанр: Фэнтези, история
Страна: США , Великобритания
Режиссер: Тим Ван Паттен, Алан Тейлор, Брайан Кирк
В ролях: Николай Костер-Вальдау, Лина Хиди, Айэйн Глен, Питер Динклэйдж, Эмилия Кларк, Мишель Фэйрли, Эйден Гиллен, Кит Харингтон, Марк Эдди и др.
Сюжет фильма:
К концу подходит время благоденствия, и лето, длившееся несколько десятилетий, угасает. Вокруг средоточия власти Семи королевств, Железного трона, зреет заговор, и в это непростое время король решает искать поддержки у друга юности Эддарда Старка. В мире, где все - от короля до наемника - рвутся к власти, плетут интриги и готовы вонзить нож в спину, есть место и благородству, состраданию и любви. Между тем, никто не замечает пробуждение тьмы из легенд далеко на Севере - и лишь Стена защищает живых к югу от нее.

Качество видео: WEB-DL 720p

Продолжительность: ~ 00:55:00
Формат: MP4
Видео: AVC, 1280x720 (16:9), ~4000 kbps
Аудио: русский, многоголосый закадровый [профессиональный] (LostFilm), AAC 2.0, 128 - 256 kbps

Ограничение по возрасту: 18+
Внимание! В сериале присутствуют сцены с обнаженной натурой и ненормативная лексика.

Код:

Общее
Полное имя                               : D:\Фильмы\Игра престолов\Сезон 1\Game.of.Thrones.s01e01.720p.WEB.rus.LostFilm.TV.mp4
Формат                                   : MPEG-4
Профиль формата                          : Base Media / Version 2
Идентификатор кодека                     : mp42
Размер файла                             : 1,70 Гбайт
Продолжительность                        : 1 ч. 1 м.
Общий поток                              : 3947 Кбит/сек
Дата кодирования                         : UTC 2013-04-15 17:46:07
Дата пометки                             : UTC 2013-04-15 17:46:07
Библиотека кодирования                   : AVS

Видео
Идентификатор                            : 1
Формат                                   : AVC
Формат/Информация                        : Advanced Video Codec
Профиль формата                          : Baseline@L3.1
Параметр CABAC формата                   : Нет
Параметр ReFrames формата                : 4 кадра
Идентификатор кодека                     : avc1
Идентификатор кодека/Информация          : Advanced Video Coding
Продолжительность                        : 1 ч. 1 м.
Битрейт                                  : 3817 Кбит/сек
Ширина                                   : 1280 пикселей
Высота                                   : 720 пикселей
Соотношение сторон                       : 16:9
Режим частоты кадров                     : Постоянный
Частота кадров                           : 23,976 кадра/сек
Цветовое пространство                    : YUV
Субдискретизация насыщенности            : 4:2:0
Битовая глубина                          : 8 бит
Тип развёртки                            : Прогрессивная
Бит/(Пиксели*Кадры)                      : 0.173
Размер потока                            : 1,65 Гбайт (97%)
Язык                                     : English
Дата кодирования                         : UTC 2013-04-15 17:46:07
Дата пометки                             : UTC 2013-04-15 17:46:07
Основные цвета                           : BT.709
Характеристики трансфера                 : BT.709
Коэффициенты матрицы                     : BT.709
mdhd_Duration                            : 3703783

Аудио
Идентификатор                            : 2
Формат                                   : AAC
Формат/Информация                        : Advanced Audio Codec
Профиль формата                          : LC
Идентификатор кодека                     : 40
Продолжительность                        : 1 ч. 1 м.
Вид битрейта                             : Постоянный
Битрейт                                  : 128 Кбит/сек
Каналы                                   : 2 канала
Расположение каналов                     : Front: L R
Частота                                  : 48,0 КГц
Метод сжатия                             : С потерями
Размер потока                            : 55,3 Мбайт (3%)
Язык                                     : English
Дата кодирования                         : UTC 2013-04-15 17:46:07
Дата пометки                             : UTC 2013-04-15 17:46:07
mdhd_Duration                            : 3703701

Код:

Общее
Полное имя                               : D:\Фильмы\Игра престолов\Сезон 2\Game.of.Thrones.s02e01.720p.WEB.rus.LostFilm.TV.mp4
Формат                                   : MPEG-4
Профиль формата                          : Base Media / Version 2
Идентификатор кодека                     : mp42
Размер файла                             : 1,52 Гбайт
Продолжительность                        : 55 м.
Общий поток                              : 3931 Кбит/сек
Дата кодирования                         : UTC 2013-04-16 15:11:55
Дата пометки                             : UTC 2013-04-16 15:11:55
Библиотека кодирования                   : AVS

Видео
Идентификатор                            : 1
Формат                                   : AVC
Формат/Информация                        : Advanced Video Codec
Профиль формата                          : Baseline@L3.1
Параметр CABAC формата                   : Нет
Параметр ReFrames формата                : 4 кадра
Идентификатор кодека                     : avc1
Идентификатор кодека/Информация          : Advanced Video Coding
Продолжительность                        : 55 м.
Продолжительность оригинала              : 55 м.
Битрейт                                  : 3801 Кбит/сек
Ширина                                   : 1280 пикселей
Высота                                   : 720 пикселей
Соотношение сторон                       : 16:9
Режим частоты кадров                     : Постоянный
Частота кадров                           : 23,976 кадра/сек
Цветовое пространство                    : YUV
Субдискретизация насыщенности            : 4:2:0
Битовая глубина                          : 8 бит
Тип развёртки                            : Прогрессивная
Бит/(Пиксели*Кадры)                      : 0.172
Размер потока                            : 1,47 Гбайт (97%)
Размер потока оригинала                  : 1,47 Гбайт (97%)
Язык                                     : English
Дата кодирования                         : UTC 2013-04-16 15:11:55
Дата пометки                             : UTC 2013-04-16 15:11:55
Основные цвета                           : BT.709
Характеристики трансфера                 : BT.709
Коэффициенты матрицы                     : BT.709
mdhd_Duration                            : 3318694

Аудио
Идентификатор                            : 2
Формат                                   : AAC
Формат/Информация                        : Advanced Audio Codec
Профиль формата                          : LC
Идентификатор кодека                     : 40
Продолжительность                        : 55 м.
Вид битрейта                             : Постоянный
Битрейт                                  : 128 Кбит/сек
Каналы                                   : 2 канала
Расположение каналов                     : Front: L R
Частота                                  : 48,0 КГц
Метод сжатия                             : С потерями
Размер потока                            : 49,6 Мбайт (3%)
Язык                                     : English
Дата кодирования                         : UTC 2013-04-16 15:11:55
Дата пометки                             : UTC 2013-04-16 15:11:55
mdhd_Duration                            : 3318613

Код:

Общее
Полное имя                               : D:\Фильмы\Игра престолов\Сезон 3\Game.of.Thrones.S03E01.720p.WEB.rus.LostFilm.TV.mp4
Формат                                   : MPEG-4
Профиль формата                          : Base Media
Идентификатор кодека                     : isom
Размер файла                             : 1,61 Гбайт
Продолжительность                        : 57 м.
Режим общего битрейта                    : Переменный
Общий поток                              : 4021 Кбит/сек
Коллекция                                : Игра престолов
Сезон                                    : 3
Альбом                                   : Игра престолов, Сезон 3
Альбом/Исполнитель                       : Игра престолов
Часть                                    : 1
Часть/Положение                          : 3
Трек                                     : Валар Дохаэрис
Трек/Положение                           : 1
Исполнитель                              : Игра престолов
Жанр                                     : Sci-Fi & Fantasy
Тип содержимого                          : TV Show
Дата записи                              : 2013
Дата кодирования                         : UTC 2013-04-02 17:39:17
Дата пометки                             : UTC 2013-04-03 17:44:23
Программа кодирования                    : LostCoder
Авторское право                          : LostFilm.TV (c)
Обложка                                  : Yes
Примечание                               : Сюжет третьего сезона основан на книге Джорджа Мартина "Буря мечей" из цикла романов "Песнь льда и пламени".
Part_ID                                  : 301

Видео
Идентификатор                            : 1
Формат                                   : AVC
Формат/Информация                        : Advanced Video Codec
Профиль формата                          : Main@L3.1
Параметр CABAC формата                   : Нет
Параметр ReFrames формата                : 4 кадра
Идентификатор кодека                     : avc1
Идентификатор кодека/Информация          : Advanced Video Coding
Продолжительность                        : 57 м.
Битрейт                                  : 4000 Кбит/сек
Максимальный битрейт                     : 6219 Кбит/сек
Ширина                                   : 1280 пикселей
Высота                                   : 720 пикселей
Соотношение сторон                       : 16:9
Режим частоты кадров                     : Переменный
Частота кадров                           : 23,976 кадра/сек
Минимальная частота кадров               : 23,974 кадра/сек
Максимальная частота кадров              : 23,981 кадра/сек
Цветовое пространство                    : YUV
Субдискретизация насыщенности            : 4:2:0
Битовая глубина                          : 8 бит
Тип развёртки                            : Прогрессивная
Бит/(Пиксели*Кадры)                      : 0.181
Размер потока                            : 1,55 Гбайт (97%)
Библиотека кодирования                   : x264 core 112 r1834 a51816a
Настройки программы                      : cabac=0 / ref=3 / deblock=1:0:0 / analyse=0x1:0x111 / me=hex / subme=7 / psy=1 / psy_rd=1.00:0.00 / mixed_ref=1 / me_range=16 / chroma_me=1 / trellis=1 / 8x8dct=0 / cqm=0 / deadzone=21,11 / fast_pskip=1 / chroma_qp_offset=-2 / threads=6 / sliced_threads=0 / nr=0 / decimate=1 / interlaced=0 / constrained_intra=0 / bframes=3 / b_pyramid=2 / b_adapt=1 / b_bias=0 / direct=1 / weightb=1 / open_gop=0 / weightp=2 / keyint=250 / keyint_min=25 / scenecut=40 / intra_refresh=0 / rc_lookahead=40 / rc=abr / mbtree=1 / bitrate=4000 / ratetol=1.0 / qcomp=0.60 / qpmin=0 / qpmax=51 / qpstep=4 / vbv_maxrate=5000 / vbv_bufsize=2000 / ip_ratio=1.40 / aq=1:1.00 / nal_hrd=none
Язык                                     : English
Дата пометки                             : UTC 2013-04-02 17:40:30

Аудио
Идентификатор                            : 2
Формат                                   : AAC
Формат/Информация                        : Advanced Audio Codec
Профиль формата                          : LC
Идентификатор кодека                     : 40
Продолжительность                        : 57 м.
Вид битрейта                             : Переменный
Битрейт                                  : 127 Кбит/сек
Максимальный битрейт                     : 191 Кбит/сек
Каналы                                   : 2 канала
Расположение каналов                     : Front: L R
Частота                                  : 48,0 КГц
Метод сжатия                             : С потерями
Размер потока                            : 52,2 Мбайт (3%)
Дата кодирования                         : UTC 2013-04-02 17:40:28
Дата пометки                             : UTC 2013-04-02 17:40:30

Код:

Общее
Полное имя                               : D:\Фильмы\Игра престолов\Сезон 4\Game.of.Thrones.S04E01.720p.WEB.rus.LostFilm.TV.mp4
Формат                                   : MPEG-4
Профиль формата                          : Base Media
Идентификатор кодека                     : isom
Размер файла                             : 1,71 Гбайт
Продолжительность                        : 1 ч. 0 м.
Режим общего битрейта                    : Переменный
Общий поток                              : 4050 Кбит/сек
Коллекция                                : Игра престолов
Сезон                                    : 4
Альбом                                   : Игра престолов, Сезон 4
Альбом/Исполнитель                       : Игра престолов
Часть                                    : 1
Часть/Положение                          : 4
Трек                                     : Миса
Трек/Положение                           : 1
Исполнитель                              : Игра престолов
Жанр                                     : Sci-Fi & Fantasy
Тип содержимого                          : TV Show
Дата записи                              : 2014
Дата кодирования                         : UTC 2014-04-07 20:33:51
Дата пометки                             : UTC 2014-04-08 20:39:26
Программа кодирования                    : LostCoder
Авторское право                          : LostFilm.TV (c)
Обложка                                  : Yes
Примечание                               : Сюжет четвертого сезона основан на второй части третьей книи Джорджа Мартина "Буря мечей" из цикла романов "Песнь льда и пламени".
Part_ID                                  : 401

Видео
Идентификатор                            : 1
Формат                                   : AVC
Формат/Информация                        : Advanced Video Codec
Профиль формата                          : Main@L3.1
Параметр CABAC формата                   : Нет
Параметр ReFrames формата                : 4 кадра
Идентификатор кодека                     : avc1
Идентификатор кодека/Информация          : Advanced Video Coding
Продолжительность                        : 1 ч. 0 м.
Битрейт                                  : 4000 Кбит/сек
Максимальный битрейт                     : 6431 Кбит/сек
Ширина                                   : 1280 пикселей
Высота                                   : 720 пикселей
Соотношение сторон                       : 16:9
Режим частоты кадров                     : Переменный
Частота кадров                           : 23,976 кадра/сек
Минимальная частота кадров               : 23,974 кадра/сек
Максимальная частота кадров              : 23,981 кадра/сек
Цветовое пространство                    : YUV
Субдискретизация насыщенности            : 4:2:0
Битовая глубина                          : 8 бит
Тип развёртки                            : Прогрессивная
Бит/(Пиксели*Кадры)                      : 0.181
Размер потока                            : 1,65 Гбайт (97%)
Библиотека кодирования                   : x264 core 112 r1834 a51816a
Настройки программы                      : cabac=0 / ref=3 / deblock=1:0:0 / analyse=0x1:0x111 / me=hex / subme=7 / psy=1 / psy_rd=1.00:0.00 / mixed_ref=1 / me_range=16 / chroma_me=1 / trellis=1 / 8x8dct=0 / cqm=0 / deadzone=21,11 / fast_pskip=1 / chroma_qp_offset=-2 / threads=6 / sliced_threads=0 / nr=0 / decimate=1 / interlaced=0 / constrained_intra=0 / bframes=3 / b_pyramid=2 / b_adapt=1 / b_bias=0 / direct=1 / weightb=1 / open_gop=0 / weightp=2 / keyint=250 / keyint_min=25 / scenecut=40 / intra_refresh=0 / rc_lookahead=40 / rc=abr / mbtree=1 / bitrate=4000 / ratetol=1.0 / qcomp=0.60 / qpmin=0 / qpmax=51 / qpstep=4 / vbv_maxrate=5000 / vbv_bufsize=2000 / ip_ratio=1.40 / aq=1:1.00 / nal_hrd=none
Язык                                     : English
Дата пометки                             : UTC 2014-04-07 20:36:54

Аудио
Идентификатор                            : 2
Формат                                   : AAC
Формат/Информация                        : Advanced Audio Codec
Профиль формата                          : LC
Идентификатор кодека                     : 40
Продолжительность                        : 1 ч. 0 м.
Вид битрейта                             : Переменный
Битрейт                                  : 128 Кбит/сек
Максимальный битрейт                     : 159 Кбит/сек
Каналы                                   : 2 канала
Расположение каналов                     : Front: L R
Частота                                  : 48,0 КГц
Метод сжатия                             : С потерями
Размер потока                            : 55,2 Мбайт (3%)
Дата кодирования                         : UTC 2014-04-07 20:36:36
Дата пометки                             : UTC 2014-04-07 20:36:54

Код:

Общее
Полное имя                               : D:\Фильмы\Игра престолов\Сезон 5\Game.of.Thrones.S05E01.720p.WEB.rus.LostFilm.TV.mp4
Формат                                   : MPEG-4
Профиль формата                          : Base Media
Идентификатор кодека                     : isom
Размер файла                             : 1,52 Гбайт
Продолжительность                        : 52 м.
Режим общего битрейта                    : Переменный
Общий поток                              : 4160 Кбит/сек
Коллекция                                : Игра престолов
Сезон                                    : 5
Альбом                                   : Игра престолов, Сезон 5
Альбом/Исполнитель                       : Игра престолов
Часть                                    : 1
Часть/Положение                          : 5
Трек                                     : Грядущие войны
Трек/Положение                           : 1
Исполнитель                              : Игра престолов
Жанр                                     : Sci-Fi & Fantasy
Тип содержимого                          : TV Show
Дата записи                              : 2015
Дата кодирования                         : UTC 2015-04-13 20:03:57
Дата пометки                             : UTC 2015-04-13 20:03:57
Программа кодирования                    : Yamb 2.1.0.0 [http://yamb.unite-video.com] / LostCoder
Авторское право                          : LostFilm.TV (c)
Обложка                                  : Yes
Примечание                               : Сюжет четвертого сезона основан на второй части третьей книи Джорджа Мартина "Буря мечей" из цикла романов "Песнь льда и пламени".
Part_ID                                  : 501

Видео
Идентификатор                            : 1
Формат                                   : AVC
Формат/Информация                        : Advanced Video Codec
Профиль формата                          : High@L4.1
Параметр CABAC формата                   : Нет
Параметр ReFrames формата                : 4 кадра
Идентификатор кодека                     : avc1
Идентификатор кодека/Информация          : Advanced Video Coding
Продолжительность                        : 52 м.
Битрейт                                  : 4000 Кбит/сек
Максимальный битрейт                     : 5975 Кбит/сек
Ширина                                   : 1280 пикселей
Высота                                   : 720 пикселей
Соотношение сторон                       : 16:9
Режим частоты кадров                     : Постоянный
Частота кадров                           : 23,976 кадра/сек
Цветовое пространство                    : YUV
Субдискретизация насыщенности            : 4:2:0
Битовая глубина                          : 8 бит
Тип развёртки                            : Прогрессивная
Бит/(Пиксели*Кадры)                      : 0.181
Размер потока                            : 1,42 Гбайт (94%)
Заголовок                                : Imported with GPAC 0.4.6-DEV (internal rev. 5)
Библиотека кодирования                   : x264 core 112 r1834 a51816a
Настройки программы                      : cabac=0 / ref=3 / deblock=1:0:0 / analyse=0x3:0x113 / me=hex / subme=7 / psy=1 / psy_rd=1.00:0.00 / mixed_ref=1 / me_range=16 / chroma_me=1 / trellis=1 / 8x8dct=1 / cqm=0 / deadzone=21,11 / fast_pskip=1 / chroma_qp_offset=-2 / threads=12 / sliced_threads=0 / nr=0 / decimate=1 / interlaced=0 / constrained_intra=0 / bframes=3 / b_pyramid=2 / b_adapt=1 / b_bias=0 / direct=1 / weightb=1 / open_gop=0 / weightp=2 / keyint=250 / keyint_min=25 / scenecut=40 / intra_refresh=0 / rc_lookahead=40 / rc=abr / mbtree=1 / bitrate=4000 / ratetol=1.0 / qcomp=0.60 / qpmin=0 / qpmax=51 / qpstep=4 / vbv_maxrate=5000 / vbv_bufsize=2000 / ip_ratio=1.40 / aq=1:1.00 / nal_hrd=none
Дата кодирования                         : UTC 2015-04-12 19:23:01
Дата пометки                             : UTC 2015-04-13 20:04:22

Аудио
Идентификатор                            : 2
Формат                                   : AAC
Формат/Информация                        : Advanced Audio Codec
Профиль формата                          : LC
Идентификатор кодека                     : 40
Продолжительность                        : 52 м.
Вид битрейта                             : Переменный
Битрейт                                  : 256 Кбит/сек
Максимальный битрейт                     : 330 Кбит/сек
Каналы                                   : 2 канала
Расположение каналов                     : Front: L R
Частота                                  : 48,0 КГц
Метод сжатия                             : С потерями
Размер потока                            : 95,9 Мбайт (6%)
Дата кодирования                         : UTC 2015-04-13 20:04:20
Дата пометки                             : UTC 2015-04-13 20:04:22
Семпл: http://multi-up.com/854923

Релиз группы:



picpicpicpic
Для увеличения картинки щелкните мышкой по превью

Этот торрент недоступен для скачивания без регистрации, однако доступен по публичной magnet-ссылке (источники с публичных трекеров). Перед использованием ссылки прочтите, пожалуйста Пользовательское соглашение, а также как можно дольше оставайтесь на раздаче! Для того, чтобы скачать сам торрент-файл (который видит больше источников), а также для того, чтобы поблагодарить релизера, вам необходимо зарегистрироваться. Если регистрироваться лень - вы можете также попробовать скачать релиз по нашим партнерским ссылкам ниже. Кроме того, зарегистрированным пользователям не показывается всплывающая реклама при скачивании.

[underverse.su].t57921.torrent
Трекер: Зарегистрирован   [ 06.09.2015 12:27 ]  

Статус: © запрещена на территории РФ (by Паукан at 13.09.2016 12:04)
Поблагодарили: 4 человека
Тип торрента: публичный - доступные источники с открытых трекеров: 
Размер: 79,18 GB (занимает 18,09 DVDR, для записи нужно 19 болванок DVDR/RW)
 
 
Похожие темы
Форум Тема Автор Торрент Отв. Посл. сооб.
© Зарубежные сериалы Игра престолов / Game of Thrones (сезон 1, серии 1-10) (Тимоти Ван Паттен, Брайан Кирк, Даниэль Минахан, Алан Тейлор ) [2011 г., фэнтези, драма, HDTVRip] МУХА~
1 | 0
5,35 GB

2 | 4803

357

22.04.2014 04:27

© Зарубежные сериалы Игра престолов / Game of Thrones (Алан Тейлор, Брайан Кирк, Даниэль Минахан) [02x01-10] [2011 (2 сезона) г., фэнтези, драма, приключения, HDTVRip] H. Ledger
13 | 1
5,63 GB

5 | 11484

314

04.12.2012 20:06

© Зарубежные сериалы Игра престолов / Game of Thrones (Сезон 7, серия 1-7 из 7) (Джереми Подесва) [2017 г., Драма, фэнтези, приключения, экранизация, WEB-DLRip-AVC] [DD5.1] MVO... Nikolai.Baranov
1 | 0
21,53 GB

0 | 3124

9

24.07.2017 13:35

© Зарубежные сериалы [BD / Remux / BDRip / WEB-DL / HDTV 1080/720р] Игра Престолов / Game of Thrones / 5 Сезон (Алан Тейлор , Дэвид Наттер , Алекс Грейвз) [2015 г., Фентези, Драма, Приключения, WEB-DLRip 1080p] LostFilm, AlexFilm, FOX, Amedia, Omikron + Original +... Станислав Карбанович
1 | 1
46,74 GB

1 | 6299

62

25.06.2015 20:01

© Зарубежные сериалы [BD / Remux / BDRip / WEB-DL / HDTV 1080/720р] Игра престолов / Game of Thrones[2017](Сезон 7, Серия 1-7 из 7)(Джереми Подесва)[Драма, фэнтези, приключения, экранизация , WEB-DLRip][720p][DD5.1][MVO][Kravec,LostFilm,AlexFilm,NewStudiо,OMSKBIRD,Bai... Nikolai.Baranov
0 | 0
26,55 GB

2 | 2819

3

28.08.2017 08:20

© Архив (Сериалы) Игра престолов / Game of Thrones / Сезон: 5 / Серии: 1-4 из 10 (Алан Тейлор, Даниэль Минахан, Дэвид Наттер) [2015, Фэнтези, драма, приключения, экранизация, HDRip] Original vip02
0 | 0
1,31 GB

5 | 3266

36

24.05.2018 22:23

© Архив (Сериалы) Игра престолов / Game of Thrones / Season 5 (1-5 из 10) (Тимоти Ван Паттен, Брайан Кирк, Даниэль Минахан, Алан Тейлор) [2015 г., фэнтези, драма, приключения, HDTVRip] MVO ultarasbarcelona
0 | 0
2,58 GB

1 | 1617

19

31.01.2018 16:55

Закрытые релизы Игра престолов / Game of Thrones / Season 5 (1-10 серии) (Дэвид Беньофф, Дэн Вайс, Алекс Грейвз) [2015 г., фэнтези, драма, приключения, WEB-DLRip] Dub + Original + Subs nataaach
2 | 0

5 | 3044

67

06.05.2016 11:35

T Закрытые релизы Игра престолов / Game of Thrones / Сезон 6 (1 из 10) (Алан Тейлор, Дэвид Наттер, Алекс Грейвз) [2016 г., фэнтези, драма, приключения, HDTVRip 720p] Dub (Amedia) + MVO (AlexFilm) + MVO (LostFilm) +... Dryn9
3 | 1

1 | 802

32

30.05.2016 18:08

T Закрытые релизы Игра престолов / Game of Thrones / Сезон 6 (1-2 из 10) (Брайан Кирк, Даниэль Минахан, Алан Тейлор, Дэвид Петрарка, Дэвид Наттер) [2016 г., Драма, фэнтези, приключения, экранизация, WEB-DL (1080p)]... Dryn9
0 | 0

1 | 510

0

25.05.2016 04:53



Последний раз редактировалось: K7SoLoN (07.09.2015 00:42), всего редактировалось 1 раз

07-Сен-2015 12:41

Топик был перенесен из форума Зарубежные сериалы в форум Зарубежные сериалы [BD / Remux / BDRip / WEB-DL / HDTV 1080/720р]


makkol
 

Яндекс.Метрика powered by Sphinx


В Н И М А Н И Е
Сайт не распространяет и не хранит электронные версии произведений, а лишь бесплатно и без коммерческой выгоды (не требуя взамен платы,
SMS и т.д.) предоставляет доступ к создаваемому пользователями каталогу ссылок на торрент-файлы, которые содержат только списки хеш-сумм.
Убедительная просьба с жалобами обращаться напрямую к пользователю, разместившему торрент файл.

Вверх