Loading...
Error

(Instrumental, Trip Hop, Downtempo) TM Juke - Maps From The Wilderness (2003) [FLAC (Tracks+.CUE), lossless]

Статистика раздачи
Размер:  264 MB   |    Зарегистрирован:  2 года 11 месяцев   |    Скачан:  6 раз

Полного источника не было: 1 день 18 часов

Сидов:  0  |  0 KB/s  ]   Личеров:  0  |  0 KB/s  ]

* - сиды/пиры с внешних источников

   
 
Автор Сообщение

8ad_R060d Пол:Муж

29-Дек-2015 17:37

TM Juke - Maps From The Wilderness

Жанр: Instrumental, Trip Hop, Downtempo
Год выпуска: 2003
Источник: CD
Производитель: UK, Tru Thoughts, TRUCD050
Аудиокодек: FLAC
Тип рипа: Tracks+.CUE
Битрейт: lossless
Продолжительность: 00:51:27
Треклист:

01 Knee Deep (Feat. Alice Russell & Jim Oxborough)
02 Just For A Day (Sunday)
03 Get It Together (Feat. Bread & Water)
04 Fast Asleep
05 Playground Games (Feat. Alice Russell)
06 Interlude
07 Map Two
08 Wilderness Kids (Feat. Rup)
09 In The Twilight
10 Farm To Follow (Feat. Kelster)
11 Remember 99

Код:

Exact Audio Copy V0.99 prebeta 4 from 23. January 2008

EAC extraction logfile from 24. May 2009, 19:31

TM Juke / Maps From The Wilderness

Used drive  : MATSHITADVD-RAM UJ-850S   Adapter: 3  ID: 0

Read mode               : Secure
Utilize accurate stream : Yes
Defeat audio cache      : Yes
Make use of C2 pointers : No

Read offset correction                      : 102
Overread into Lead-In and Lead-Out          : No
Fill up missing offset samples with silence : Yes
Delete leading and trailing silent blocks   : No
Null samples used in CRC calculations       : Yes
Used interface                              : Native Win32 interface for Win NT & 2000
Gap handling                                : Appended to previous track

Used output format              : User Defined Encoder
Selected bitrate                : 768 kBit/s
Quality                         : High
Add ID3 tag                     : No
Command line compressor         : C:\Program Files\Exact Audio Copy\FLAC\FLAC.EXE
Additional command line options : -V -8 -T "artist=%a" -T "title=%t" -T "album=%g" -T "date=%y" -T "tracknumber=%n" -T "genre=%m" %s

TOC of the extracted CD

     Track |   Start  |  Length  | Start sector | End sector
    ---------------------------------------------------------
        1  |  0:00.00 |  5:14.53 |         0    |    23602
        2  |  5:14.53 |  4:32.71 |     23603    |    44073
        3  |  9:47.49 |  6:21.61 |     44074    |    72709
        4  | 16:09.35 |  4:16.58 |     72710    |    91967
        5  | 20:26.18 |  5:42.67 |     91968    |   117684
        6  | 26:09.10 |  1:03.58 |    117685    |   122467
        7  | 27:12.68 |  3:29.25 |    122468    |   138167
        8  | 30:42.18 |  4:47.27 |    138168    |   159719
        9  | 35:29.45 |  4:24.45 |    159720    |   179564
       10  | 39:54.15 |  4:50.04 |    179565    |   201318
       11  | 44:44.19 |  6:43.14 |    201319    |   231557

Track  1

     Filename C:\EAC Rips\TM Juke - 2003 - Maps From The Wilderness\01 - Knee Deep (Feat. Alice Russell & Jim Oxborough).wav

     Pre-gap length  0:00:02.00

     Peak level 99.7 %
     Track quality 100.0 %
     Test CRC FCE01AAE
     Copy CRC FCE01AAE
     Accurately ripped (confidence 5)  [4E04229A]
     Copy OK

Track  2

     Filename C:\EAC Rips\TM Juke - 2003 - Maps From The Wilderness\02 - Just For A Day (Sunday).wav

     Pre-gap length  0:00:02.33

     Peak level 99.7 %
     Track quality 99.9 %
     Test CRC 1163421D
     Copy CRC 1163421D
     Accurately ripped (confidence 5)  [6E5C2AD0]
     Copy OK

Track  3

     Filename C:\EAC Rips\TM Juke - 2003 - Maps From The Wilderness\03 - Get It Together (Feat. Bread & Water).wav

     Pre-gap length  0:00:02.98

     Peak level 88.8 %
     Track quality 100.0 %
     Test CRC 9156B377
     Copy CRC 9156B377
     Accurately ripped (confidence 5)  [E28D23CB]
     Copy OK

Track  4

     Filename C:\EAC Rips\TM Juke - 2003 - Maps From The Wilderness\04 - Fast Asleep.wav

     Peak level 100.0 %
     Track quality 100.0 %
     Test CRC 12CC61E0
     Copy CRC 12CC61E0
     Accurately ripped (confidence 5)  [5B4C8051]
     Copy OK

Track  5

     Filename C:\EAC Rips\TM Juke - 2003 - Maps From The Wilderness\05 - Playground Games (Feat. Alice Russell).wav

     Pre-gap length  0:00:01.26

     Peak level 94.1 %
     Track quality 100.0 %
     Test CRC DA3D321C
     Copy CRC DA3D321C
     Accurately ripped (confidence 5)  [83A5F97D]
     Copy OK

Track  6

     Filename C:\EAC Rips\TM Juke - 2003 - Maps From The Wilderness\06 - Interlude.wav

     Pre-gap length  0:00:02.98

     Peak level 49.9 %
     Track quality 100.0 %
     Test CRC 036807E8
     Copy CRC 036807E8
     Accurately ripped (confidence 5)  [C0958B6F]
     Copy OK

Track  7

     Filename C:\EAC Rips\TM Juke - 2003 - Maps From The Wilderness\07 - Map Two.wav

     Peak level 99.7 %
     Track quality 100.0 %
     Test CRC 16FEC28A
     Copy CRC 16FEC28A
     Accurately ripped (confidence 5)  [5936FCBD]
     Copy OK

Track  8

     Filename C:\EAC Rips\TM Juke - 2003 - Maps From The Wilderness\08 - Wilderness Kids (Feat. Rup).wav

     Peak level 100.0 %
     Track quality 100.0 %
     Test CRC 77FE9493
     Copy CRC 77FE9493
     Accurately ripped (confidence 5)  [C8DAE06A]
     Copy OK

Track  9

     Filename C:\EAC Rips\TM Juke - 2003 - Maps From The Wilderness\09 - In The Twilight.wav

     Pre-gap length  0:00:00.21

     Peak level 100.0 %
     Track quality 100.0 %
     Test CRC E63902BB
     Copy CRC E63902BB
     Accurately ripped (confidence 5)  [4533237C]
     Copy OK

Track 10

     Filename C:\EAC Rips\TM Juke - 2003 - Maps From The Wilderness\10 - Farm To Follow (Feat. Kelster).wav

     Peak level 99.7 %
     Track quality 100.0 %
     Test CRC 88F17876
     Copy CRC 88F17876
     Accurately ripped (confidence 5)  [3F33C515]
     Copy OK

Track 11

     Filename C:\EAC Rips\TM Juke - 2003 - Maps From The Wilderness\11 - Remember 99.wav

     Peak level 100.0 %
     Track quality 100.0 %
     Test CRC 67AE286B
     Copy CRC 67AE286B
     Accurately ripped (confidence 5)  [04A138F3]
     Copy OK

All tracks accurately ripped

No errors occurred

End of status report

Код:

REM GENRE Trip-Hop
REM DATE 2003
REM DISCID 9E0C0F0B
REM COMMENT "ExactAudioCopy v0.99pb4"
PERFORMER "TM Juke"
TITLE "Maps From The Wilderness"
FILE "TM Juke - 2003 - Maps From The Wilderness\01 - Knee Deep (Feat. Alice Russell & Jim Oxborough).wav" WAVE
  TRACK 01 AUDIO
    TITLE "Knee Deep (Feat. Alice Russell & Jim Oxborough)"
    PERFORMER "TM Juke"
    INDEX 01 00:00:00
  TRACK 02 AUDIO
    TITLE "Just For A Day (Sunday)"
    PERFORMER "TM Juke"
    INDEX 00 05:12:28
FILE "TM Juke - 2003 - Maps From The Wilderness\02 - Just For A Day (Sunday).wav" WAVE
    INDEX 01 00:00:00
  TRACK 03 AUDIO
    TITLE "Get It Together (Feat. Bread & Water)"
    PERFORMER "TM Juke"
    INDEX 00 04:29:72
FILE "TM Juke - 2003 - Maps From The Wilderness\03 - Get It Together (Feat. Bread & Water).wav" WAVE
    INDEX 01 00:00:00
FILE "TM Juke - 2003 - Maps From The Wilderness\04 - Fast Asleep.wav" WAVE
  TRACK 04 AUDIO
    TITLE "Fast Asleep"
    PERFORMER "TM Juke"
    INDEX 01 00:00:00
  TRACK 05 AUDIO
    TITLE "Playground Games (Feat. Alice Russell)"
    PERFORMER "TM Juke"
    INDEX 00 04:15:38
FILE "TM Juke - 2003 - Maps From The Wilderness\05 - Playground Games (Feat. Alice Russell).wav" WAVE
    INDEX 01 00:00:00
  TRACK 06 AUDIO
    TITLE "Interlude"
    PERFORMER "TM Juke"
    INDEX 00 05:39:68
FILE "TM Juke - 2003 - Maps From The Wilderness\06 - Interlude.wav" WAVE
    INDEX 01 00:00:00
FILE "TM Juke - 2003 - Maps From The Wilderness\07 - Map Two.wav" WAVE
  TRACK 07 AUDIO
    TITLE "Map Two"
    PERFORMER "TM Juke"
    INDEX 01 00:00:00
FILE "TM Juke - 2003 - Maps From The Wilderness\08 - Wilderness Kids (Feat. Rup).wav" WAVE
  TRACK 08 AUDIO
    TITLE "Wilderness Kids (Feat. Rup)"
    PERFORMER "TM Juke"
    INDEX 01 00:00:00
  TRACK 09 AUDIO
    TITLE "In The Twilight"
    PERFORMER "TM Juke"
    INDEX 00 04:47:11
FILE "TM Juke - 2003 - Maps From The Wilderness\09 - In The Twilight.wav" WAVE
    INDEX 01 00:00:00
FILE "TM Juke - 2003 - Maps From The Wilderness\10 - Farm To Follow (Feat. Kelster).wav" WAVE
  TRACK 10 AUDIO
    TITLE "Farm To Follow (Feat. Kelster)"
    PERFORMER "TM Juke"
    INDEX 01 00:00:00
FILE "TM Juke - 2003 - Maps From The Wilderness\11 - Remember 99.wav" WAVE
  TRACK 11 AUDIO
    TITLE "Remember 99"
    PERFORMER "TM Juke"
    INDEX 01 00:00:00

Код:

AUDIOCHECKER v2.0 beta (build 457) - by Dester - opdester@freemail.hu
~~~~~~~~~~~~~~~~~~~~~~~~~~~~~~~~~~
-=== DO NOT EDIT THIS FILE! ===-

Path: ...\TM Juke - Maps From The Wilderness (2003)

01 -=- 01 - Knee Deep (Feat. Alice Russell & Jim Oxborough).flac -=- CDDA (100%)
02 -=- 02 - Just For A Day (Sunday).flac -=- CDDA (99%)
03 -=- 03 - Get It Together (Feat. Bread & Water).flac -=- CDDA (100%)
04 -=- 04 - Fast Asleep.flac -=- CDDA (100%)
05 -=- 05 - Playground Games (Feat. Alice Russell).flac -=- CDDA (99%)
06 -=- 06 - Interlude.flac -=- CDDA (100%)
07 -=- 07 - Map Two.flac -=- CDDA (100%)
08 -=- 08 - Wilderness Kids (Feat. Rup).flac -=- CDDA (99%)
09 -=- 09 - In The Twilight.flac -=- CDDA (100%)
10 -=- 10 - Farm To Follow (Feat. Kelster).flac -=- CDDA (100%)
11 -=- 11 - Remember 99.flac -=- CDDA (100%)

Summary 99,73% CDDA

106899268

Этот торрент недоступен для скачивания без регистрации, однако доступен по публичной magnet-ссылке (источники с публичных трекеров). Перед использованием ссылки прочтите, пожалуйста Пользовательское соглашение, а также как можно дольше оставайтесь на раздаче! Для того, чтобы скачать сам торрент-файл (который видит больше источников), а также для того, чтобы поблагодарить релизера, вам необходимо зарегистрироваться. Если регистрироваться лень - вы можете также попробовать скачать релиз по нашим партнерским ссылкам ниже. Кроме того, зарегистрированным пользователям не показывается всплывающая реклама при скачивании.

[underverse.su].t61232.torrent
Трекер: Зарегистрирован   [ 29.12.2015 17:37 ]  

Статус: проверено (by Бишеп at 29.12.2015 22:23)
Поблагодарили: 1 человек
Тип торрента: публичный - доступные источники с открытых трекеров: 
Размер: 264 MB (занимает 0,06 DVDR, для записи нужно 1 болванка DVDR/RW)
 
 
Похожие темы
Форум Тема Автор Торрент Отв. Посл. сооб.
Зарубежный Hard, Progressive, Soft, Melodic, AOR, Folk, Classic Rock (Instrumental Rock) Joe Satriani - Дискография 1986-2010 (22 альбома) [MP3, 320 kbps] Паукан
1 | 0

0 | 2645

16

08.12.2012 19:08

Зарубежный Hard, Progressive, Soft, Melodic, AOR, Folk, Classic Rock (Instrumental Rock) ArneL - Symphonies For The Love That Heals Me (2017) [MP3, 320 kbps CBR] Darkferse
1 | 0

0 | 835

3

14.04.2017 19:25

Зарубежный Hard, Progressive, Soft, Melodic, AOR, Folk, Classic Rock (Instrumental Metal, Guitar Virtuoso) Stephane Pilette - Unleashing the Beast (2017) [MP3, 320 kbps CBR] Darkferse
1 | 0

0 | 626

2

10.06.2017 08:35

Зарубежный Hard, Progressive, Soft, Melodic, AOR, Folk, Classic Rock (Instrumental Metal, Guitar Virtuoso) Fabrizio Leo - Coming Home (2017) [MP3, 320 kbps CBR] Darkferse
1 | 2

0 | 780

1

04.09.2017 17:43

Зарубежный Hard, Progressive, Soft, Melodic, AOR, Folk, Classic Rock (Instrumental Rock) Northern Landmarks - Expose (2017) [MP3, 320 kbps CBR] Darkferse
2 | 0

0 | 599

3

04.09.2017 17:50

Зарубежный Hard, Progressive, Soft, Melodic, AOR, Folk, Classic Rock (Instrumental Progressive Rock) Colin Peters - Eclipse (2017) [MP3, 320 kbps CBR] Darkferse
1 | 0

0 | 404

2

17.12.2017 20:35

Зарубежный Hard, Progressive, Soft, Melodic, AOR, Folk, Classic Rock (Instrumental Guitar Rock) Rob Metz - Rise (2017) [MP3, 320 kbps CBR] Darkferse
1 | 0

0 | 531

3

04.01.2018 00:47

Отечественный Heavy, Thrash, Extreme (Instrumental Metal, Djent, Experimental) Ilya Dorofeev (Knoult) - Пробуждение (2012) [MP3, 320 kbps] Jimmy
1 | 0

0 | 1894

8

30.10.2012 17:41

Trip Hop, Abstract Hip Hop (Instrumental Hip-Hop, Nu Jazz, Trip-Hop) AndyFellaz - BeatBop Street (2017) [MP3, 320 kbps CBR] Darkferse
1 | 0

0 | 888

5

12.04.2017 20:36

Trip Hop, Abstract Hip Hop (Instrumental Hip Hop, Abstract) Trouble - Beam (2017) [MP3, 320 kbps CBR] Darkferse
1 | 0

0 | 741

2

17.05.2017 18:17

8ad_R060d Пол:Муж

31-Дек-2015 09:21

На раздаче! :)

Яндекс.Метрика powered by Sphinx


В Н И М А Н И Е
Сайт не распространяет и не хранит электронные версии произведений, а лишь бесплатно и без коммерческой выгоды (не требуя взамен платы,
SMS и т.д.) предоставляет доступ к создаваемому пользователями каталогу ссылок на торрент-файлы, которые содержат только списки хеш-сумм.
Убедительная просьба с жалобами обращаться напрямую к пользователю, разместившему торрент файл.

Вверх