Loading...
Error

Шерлок: Безобразная невеста / Sherlock: The Abominable Bride (Дуглас Макиннон / Douglas Mackinnon) [2016 г., триллер, драма, криминал, детектив, HDTVRip 1080i] Dub + Sub

Статистика раздачи
Размер:  5,22 GB   |    Зарегистрирован:  2 года 10 месяцев   |    Скачан:  156 раз

Полного источника не было: 13 дней

Сидов:  0  |  0 KB/s  ]   Личеров:  0  |  0 KB/s  ]

* - сиды/пиры с внешних источников

   
 
Автор Сообщение

romeoexpert Пол:Муж

02-Янв-2016 16:57

Шерлок: Безобразная невеста / Sherlock: The Abominable Bride


Год выпуска: 2015
Жанр: Детектив, криминал, мистика, экранизация
Страна: Великобритания , США
Режиссер: Дуглас МакКиннон
В ролях: Бенедикт Камбербэтч, Мартин Фриман, Уна Стаббс, Лу Брили, Руперт Грэйвз, Джонатан Арис, Аманда Эббингтон, Наташа О’Кифф
Сюжет фильма:
Отдельный рождественский эпизод сериала. Действие фильма происходит в 1895 года в Лондоне. К Шерлоку за помощью обращается некий Томас Риколетти. Он увидел свою жену в старом свадебном платье и очень удивился. А вскоре узнал, что она покончила с собой всего за несколько часов до этой странной встречи. Получается, что он видел призрак жены и, что еще хуже, теперь призрак миссис Риколетти бродит по улицам не в силах утолить жажду мести. Перемещаясь от скрытой в тумане станции «Лаймхаус» до развалин старой церкви Холмс, Ватсон и их друзья должны проявить свои лучшие качества в схватке с врагом, на первый взгляд связанным с потусторонними силами, чтобы узнать шокирующую правду о безобразной невесте!

Качество видео: HDTVRip 1080i

Продолжительность: 01:28:30
Формат: TS
Видео: MPEG-4 AVC, 1920х1080 (16:9), 7451 kbps
Аудио #1: русский, дублированный [Первый канал], AC3 5.1, 384 kbps
Аудио #2: русский, дублированный [Первый канал], MP2, 192 kbps
Субтитры: тип: вшитые отключаемые, русский, формат: Teletext Subtitle

Код:

Общее
Идентификатор                            : 1 (0x1)
Полное имя                               : M:\Sherlok.Bezobraznaya.Nevesta.2015.HDTV.(1080i).MediaClub\Sherlok.Bezobraznaya.Nevesta.(01.seriya.iz.02).2015.HDTV.(1080i).MediaClub.ts
Формат                                   : MPEG-TS
Размер файла                             : 5,22 Гбайт
Продолжительность                        : 1 ч. 28 м.
Режим общего битрейта                    : Переменный
Общий поток                              : 8450 Кбит/сек

Видео
Идентификатор                            : 1001 (0x3E9)
Идентификатор меню                       : 1052 (0x41C)
Формат                                   : AVC
Формат/Информация                        : Advanced Video Codec
Профиль формата                          : Main@L4
Параметр CABAC формата                   : Да
Параметр ReFrames формата                : 4 кадра
Идентификатор кодека                     : 27
Продолжительность                        : 1 ч. 28 м.
Битрейт                                  : 7451 Кбит/сек
Ширина                                   : 1920 пикселей
Высота                                   : 1080 пикселей
Соотношение сторон                       : 16:9
Частота кадров                           : 25,000 кадров/сек
Стандарт вещания                         : Component
Цветовое пространство                    : YUV
Субдискретизация насыщенности            : 4:2:0
Битовая глубина                          : 8 бит
Тип развёртки                            : Чересстрочная
Метод сохранения типа развёртки          : Раздельные поля
Порядок развёртки                        : Верхнее поле первое
Бит/(Пиксели*Кадры)                      : 0.144
Размер потока                            : 4,61 Гбайт (88%)
Цветовой диапазон                        : Limited
Основные цвета                           : BT.709
Характеристики трансфера                 : BT.709
Коэффициенты матрицы                     : BT.709

Аудио #1
Идентификатор                            : 1002 (0x3EA)
Идентификатор меню                       : 1052 (0x41C)
Формат                                   : AC-3
Формат/Информация                        : Audio Coding 3
Расширение режима                        : CM (complete main)
Параметр Endianness формата              : Big
Идентификатор кодека                     : 6
Продолжительность                        : 1 ч. 28 м.
Вид битрейта                             : Постоянный
Битрейт                                  : 384 Кбит/сек
Каналы                                   : 6 каналов
Расположение каналов                     : Front: L C R, Side: L R, LFE
Частота                                  : 48,0 КГц
Частота кадров                           : 31,250 кадров/сек (1536 spf)
Метод сжатия                             : С потерями
Размер потока                            : 243 Мбайт (5%)
Язык                                     : Russian

Аудио #2
Идентификатор                            : 1003 (0x3EB)
Идентификатор меню                       : 1052 (0x41C)
Формат                                   : MPEG Audio
Версия формата                           : Version 1
Профиль формата                          : Layer 2
Идентификатор кодека                     : 3
Продолжительность                        : 1 ч. 28 м.
Вид битрейта                             : Постоянный
Битрейт                                  : 192 Кбит/сек
Каналы                                   : 2 канала
Частота                                  : 48,0 КГц
Метод сжатия                             : С потерями
Размер потока                            : 122 Мбайт (2%)
Язык                                     : Russian

Текст
Идентификатор                            : 1004 (0x3EC)-888
Идентификатор меню                       : 1052 (0x41C)
Формат                                   : Teletext Subtitle
Язык                                     : Russian
picpicpic
Для увеличения картинки щелкните мышкой по превью

Этот торрент недоступен для скачивания без регистрации, однако доступен по публичной magnet-ссылке (источники с публичных трекеров). Перед использованием ссылки прочтите, пожалуйста Пользовательское соглашение, а также как можно дольше оставайтесь на раздаче! Для того, чтобы скачать сам торрент-файл (который видит больше источников), а также для того, чтобы поблагодарить релизера, вам необходимо зарегистрироваться. Если регистрироваться лень - вы можете также попробовать скачать релиз по нашим партнерским ссылкам ниже. Кроме того, зарегистрированным пользователям не показывается всплывающая реклама при скачивании.

[underverse.su].t61332.torrent
Трекер: Зарегистрирован   [ 02.01.2016 16:57 ]  

Статус: проверено (by makkol at 03.01.2016 00:52)
Поблагодарили: 5 человек
Тип торрента: публичный - доступные источники с открытых трекеров: 
Размер: 5,22 GB (занимает 1,19 DVDR, для записи нужно 2 болванки DVDR/RW)
 
 
Похожие темы
Форум Тема Автор Торрент Отв. Посл. сооб.
Зарубежные сериалы Шерлок: Безобразная невеста / Sherlock: The Abominable Bride (Дуглас Макиннон / Douglas Mackinnon) [2016 г., триллер, драма, криминал, детектив, BDRip] Dub (Первый канал) + Sub (Rus, Eng) 90ytr90
2 | 0

0 | 910

8

23.01.2016 08:51

Зарубежные сериалы Шерлок: Безобразная невеста / Sherlock: The Abominable Bride (Дуглас Макиннон / Douglas Mackinnon) [2016 г., триллер, драма, криминал, детектив, BDRip-AVC] Dub (Первый канал) + Sub (Rus, Eng) 90ytr90
2 | 0

0 | 742

18

23.01.2016 09:20

Зарубежные сериалы Шерлок: Безобразная невеста / Sherlock: The Abominable Bride (Дуглас Макиннон / Douglas Mackinnon) [2016 г., триллер, драма, криминал, детектив, BDRip-AVC] Dub (Первый канал) + Original (Eng) + Sub... 90ytr90
2 | 0

0 | 963

12

23.01.2016 09:28

Зарубежные сериалы Шерлок: Безобразная невеста / Sherlock: The Abominable Bride (Дуглас Макиннон / Douglas Mackinnon) [2016 г., триллер, драма, криминал, детектив, HDTVRip] Dub (Первый канал) [локализованная версия] +... 90ytr90
1 | 0

0 | 780

12

23.01.2016 09:34

Зарубежные сериалы [BD / Remux / BDRip / WEB-DL / HDTV 1080/720р] Шерлок: Безобразная невеста / Sherlock: The Abominable Bride (Дуглас Макиннон / Douglas Mackinnon) [2016 г., триллер, драма, криминал, детектив, HDTVRip] Dub (Первый канал) [локализованная версия] +... 90ytr90
43 | 0

0 | 1255

25

23.01.2016 08:30

Зарубежные сериалы [BD / Remux / BDRip / WEB-DL / HDTV 1080/720р] Шерлок: Безобразная невеста / Sherlock: The Abominable Bride (Дуглас Макиннон / Douglas Mackinnon) [2016 г., триллер, драма, криминал, детектив, BDRip 1080p] Dub (Первый канал) + Original (Eng) + Sub... 90ytr90
3 | 0

0 | 852

10

23.01.2016 09:42

Зарубежные сериалы [BD / Remux / BDRip / WEB-DL / HDTV 1080/720р] Шерлок: Безобразная невеста / Sherlock: The Abominable Bride (Дуглас Макиннон / Douglas Mackinnon) [2016 г., триллер, драма, криминал, детектив, BDRip 720p] Dub (Первый канал) + Original (Eng) + Sub... 90ytr90
1 | 0

0 | 882

14

23.01.2016 09:50

DrBond Пол:Муж

04-Янв-2016 21:42

Ух ты! Сильно закрутили! Я в первые 4 минуты вообще ничего не понимал, а потом БАЦ и съел подсунутую режиссёром пилюлю (и я уверен, её съест каждый, хочет он этого, или нет, даже зная время приёма:)).
Отличный сюжет, порою даже страшный, но тот же Шерлок постоянно повторяет, что приведений не бывает и успокаивает пульс зрителю. Отличная задумка режиссера вернуться в прошлое. Просто шедевр.
В общем: смотреть, смотреть и ещё раз смотреть! Пилюлька вкусная!

Яндекс.Метрика powered by Sphinx


В Н И М А Н И Е
Сайт не распространяет и не хранит электронные версии произведений, а лишь бесплатно и без коммерческой выгоды (не требуя взамен платы,
SMS и т.д.) предоставляет доступ к создаваемому пользователями каталогу ссылок на торрент-файлы, которые содержат только списки хеш-сумм.
Убедительная просьба с жалобами обращаться напрямую к пользователю, разместившему торрент файл.

Вверх