Loading...
Error

Сумеречные охотники / Shadowhunters / Сезон: 1 / Серии: 1-7 из 13 (Майрзи Алмас, Тауния Маккирнан, Энди Волк, Оз Скотт) [2016, фэнтези, боевик, драма, WEB-DL 1080p] MVO (Alternative Production) + Original

Статистика раздачи
Размер:  12,04 GB   |    Зарегистрирован:  2 года 10 месяцев   |    Скачан:  11 раз

Полного источника не было: 2 года 8 месяцев

Сидов:  0  |  0 KB/s  ]   Личеров:  0  |  0 KB/s  ]

* - сиды/пиры с внешних источников

   
 
Автор Сообщение

Zexeguhe Пол:Муж

27-Фев-2016 14:29

Сумеречные охотники / Shadowhunters / Сезон 1


Год выпуска: 2016
Жанр: фэнтези, боевик, драма
Страна: США
Режиссер: Майрзи Алмас, Тауния Маккирнан, Энди Волк, Оз Скотт
В ролях: Кэтрин МакНамара, Доминик Шервуд, Альберто Розенде, Алан Ван Спрэнг, Джон Кор, Кейтлин Вонг, Мими Кузык и др.
Сюжет фильма:
Невзрачная и ничем не примечательная девушка Клэри Фрэй в свой 18-й день рождения узнает, что она является наследницей древнего семейства Сумеречных Охотников — таинственного клана полулюдей-полуангелов, которые обороняют мир от демонических тварей. После похищения матери девушка вместе со своим другом Саймоном и сумеречным охотником Джейсом пытается ее спасти и… попадает в другую реальность.

Качество видео: WEB-DL 1080p

Продолжительность: ~00:40:00 серия
Формат: mkv
Видео: MPEG-4 AVC (H.264), 1920x1080, ~5190 kbps
Аудио #1: любительский (многоголосый закадровый) [Alternative Production], AC3 2.0, 384 kbps
Аудио #2: английский, оригинал, AC3 5.1, 384 kbps

Код:

General
Complete name                    : Shadowhunters S01E01 1080p [Alt Pro].mkv
Format                           : Matroska
File size                        : 1.68 GiB
Duration                         : 39mn 40s
Overall bit rate                 : 6 081 Kbps
Movie name                       : Shadowhunters.S01E01.1080p.WEB-DL.DD5.1.H264-RARBG
Encoded date                     : UTC 2016-01-14 13:18:08
Writing application              : mkvmerge v8.3.0 ('Over the Horizon') 64bit
Writing library                  : libebml v1.3.1 + libmatroska v1.4.2
Cover                            : Yes

Video
ID                               : 1
Format                           : AVC
Format/Info                      : Advanced Video Codec
Format profile                   : High@L4.0
Format settings, CABAC           : Yes
Format settings, ReFrames        : 4 frames
Muxing mode                      : Container profile=Unknown@4.0
Codec ID                         : V_MPEG4/ISO/AVC
Duration                         : 39mn 37s
Bit rate                         : 5 192 Kbps
Width                            : 1 920 pixels
Height                           : 1 080 pixels
Display aspect ratio             : 16/9
Frame rate                       : 23.976 fps
Resolution                       : 24 bits
Colorimetry                      : 4:2:0
Scan type                        : Progressive
Bits/(Pixel*Frame)               : 0.104
Stream size                      : 1.44 GiB (85%)

Audio #1
ID                               : 2
Format                           : AC-3
Format/Info                      : Audio Coding 3
Codec ID                         : A_AC3
Duration                         : 39mn 40s
Bit rate mode                    : Constant
Bit rate                         : 384 Kbps
Channel(s)                       : 2 channels
Channel positions                : L R
Sampling rate                    : 48.0 KHz
Stream size                      : 109 MiB (6%)
Title                            : Alt Pro
Language                         : Russian

Audio #2
ID                               : 3
Format                           : AC-3
Format/Info                      : Audio Coding 3
Codec ID                         : A_AC3
Duration                         : 39mn 40s
Bit rate mode                    : Constant
Bit rate                         : 384 Kbps
Channel(s)                       : 6 channels
Channel positions                : Front: L C R, Surround: L R, LFE
Sampling rate                    : 48.0 KHz
Stream size                      : 109 MiB (6%)
Семпл: http://multi-up.com/1084256

Релиз группы:

picpicpic
Для увеличения картинки щелкните мышкой по превью
Внимание! Раздача ведётся путём добавления новых серий.
При каждом добавлении создаётся новый торрент. Чтобы начать докачку новой серии, пользователям необходимо сделать следующее:
1. Остановить скачивание,
2. Удалить старый торрент у себя из клиента (старые серии удалять не надо),
3. Скачать новый торрент и запустить его у себя в клиенте вместо старого, при этом указать клиенту путь в старую папку куда и должно происходить скачивание новых серий.
Ваш клиент при этом должен произвести хеширование (проверку) старой папки (если не производит сам - помогите ему сделать это), и будет докачивать только те серии которых у вас ещё нет. Старые серии при этом не удаляются, а продолжают раздаваться!
Если вы уже удалили старые серии, то предотвратить повторную закачку старых серий можно, отжав галочку в соответствующих местах при запуске нового торрента

Этот торрент недоступен для скачивания без регистрации, однако доступен по публичной magnet-ссылке (источники с публичных трекеров). Перед использованием ссылки прочтите, пожалуйста Пользовательское соглашение, а также как можно дольше оставайтесь на раздаче! Для того, чтобы скачать сам торрент-файл (который видит больше источников), а также для того, чтобы поблагодарить релизера, вам необходимо зарегистрироваться. Если регистрироваться лень - вы можете также попробовать скачать релиз по нашим партнерским ссылкам ниже. Кроме того, зарегистрированным пользователям не показывается всплывающая реклама при скачивании.

[underverse.su].t63674.torrent
Трекер: Зарегистрирован   [ 02.03.2016 12:38 ]  

Статус: T временная (by makkol at 02.04.2016 13:00)
Поблагодарили: 1 человек
Тип торрента: публичный - доступные источники с открытых трекеров: 
Размер: 12,04 GB (занимает 2,75 DVDR, для записи нужно 3 болванки DVDR/RW)
 
 


Последний раз редактировалось: Zexeguhe (02.03.2016 12:38), всего редактировалось 5 раз(а)

Zexeguhe Пол:Муж

27-Фев-2016 14:35

Торент фаил перезалил на мультираздачю


Последний раз редактировалось: Zexeguhe (02.03.2016 12:40), всего редактировалось 1 раз

27-Фев-2016 22:28

Топик был перенесен из форума Зарубежные сериалы в форум Зарубежные сериалы [BD / Remux / BDRip / WEB-DL / HDTV 1080/720р]


makkol
 

makkol Пол:Муж

27-Фев-2016 22:38

Т.к., надо понимать, раздача обновляемая (а иначе и делать не стоило), желательно добавить информацию для пользователей об том, как правильно скачивать новые серии.
Например можно просто скопировать отсюда http://underverse.name/viewtopic.php?t=57317 содержимое спойлера "Обновление раздачи"

Да, и поздравляю с первой новостью!

Яндекс.Метрика powered by Sphinx


В Н И М А Н И Е
Сайт не распространяет и не хранит электронные версии произведений, а лишь бесплатно и без коммерческой выгоды (не требуя взамен платы,
SMS и т.д.) предоставляет доступ к создаваемому пользователями каталогу ссылок на торрент-файлы, которые содержат только списки хеш-сумм.
Убедительная просьба с жалобами обращаться напрямую к пользователю, разместившему торрент файл.

Вверх