Loading...
Error

(Classical/Crossover) Sarah Brightman - The Very Best Of 1990-2000 (2001) [FLAC (Image+.CUE), lossless]

Статистика раздачи
Размер:  397 MB   |    Зарегистрирован:  9 лет   |    Скачан:  2 раза
Сидов:  1  |  0 KB/s  ]   Личеров:  0  |  0 KB/s  ]

* - сиды/пиры с внешних источников

   
 
Автор Сообщение

atag Пол:Муж

02-Сен-2009 13:09

Sarah Brightman - The Very Best Of 1990-2000
Жанр: Classical/Crossover
Год выпуска: 2001
Производитель диска: UK
Аудиокодек: FLAC
Тип рипа: Image+.CUE
Битрейт аудио: lossless
Продолжительность: 63:12

Треклист:

01. A Question Of Honour (Part 2) (5:21)
02. Heaven Is Here (4:06)
03. Who Wants To Live Forever (Sarah Brightman & The London Symphony Orchestra) (3:57)
04. Time To Say Goodbye (Sarah Brightman & Andrea Bocelli) (4:08)
05. Tu Quieres Volver (Sarah Brightman & The London Symphony Orchestra) (3:51)
06. Just Show Me How to Love You (Sarah Brightman & The London Symphony Orchestra... (4:01)
07. Eden (4:02)
08. Nella Fantasia (3:41)
09. Deliver Me (4:03)
10. Only An Ocean Away (4:57)
11. Scarborough Fair (4:13)
12. A Whiter Shade Of Pale (3:14)
13. First Of May (2:57)
14. Captain Nemo (3:30)
15. La Mer (3:01)
16. The Last Words You Said (Sarah Brightman Feat. Richard Marx) (4:10)
EAC extraction logfile from 20. February 2007, 21:06 for CD
Sarah Brightman / The Very Best Of 1990-2000

Used drive : PIONEER DVD-RW DVR-107D Adapter: 1 ID: 1
Read mode : Secure with NO C2, accurate stream, disable cache
Combined read/write offset correction : 48
Overread into Lead-In and Lead-Out : No

Used output format : Internal WAV Routines
44.100 Hz; 16 Bit; Stereo

Other options :
Fill up missing offset samples with silence : Yes
Delete leading and trailing silent blocks : No
Installed external ASPI interface

Range status and errors
Selected range
Filename C:\Sarah Brightman - The Very Best Of 1990-2000\CDImage.wav

Peak level 100.0 %
Range quality 100.0 %
CRC C0DF58E8
Copy OK

No errors occured

End of status report
[Verification date: 02.09.2009 16:47:42]
[Disc ID: 00268351-01c8827b-e80ecf10]
Track [ CRC ] Status
01 [a640a767] (62/62) Accurately ripped
02 [910463c1] (63/63) Accurately ripped
03 [7499e9ff] (63/63) Accurately ripped
04 [b415c19b] (63/63) Accurately ripped
05 [f99c5ca7] (61/61) Accurately ripped
06 [232b5bf1] (61/63) Accurately ripped
07 [0ffb8573] (62/64) Accurately ripped
08 [5bc8309f] (60/62) Accurately ripped
09 [3bba9c9c] (62/64) Accurately ripped
10 [176a269f] (61/63) Accurately ripped
11 [96c81848] (61/64) Accurately ripped
12 [6d6d7d7c] (62/65) Accurately ripped
13 [1545beb2] (62/65) Accurately ripped
14 [e9a5d3e4] (62/64) Accurately ripped
15 [d8d9b2de] (63/63) Accurately ripped
16 [e589ab4a] (63/63) Accurately ripped
Offsetted by 6:
01 [98f5e083] (00/62) No matches
02 [e418d5b1] (00/63) No matches
03 [c27890bd] (00/63) No matches
04 [ee4a43af] (00/63) No matches
05 [c14b38a5] (00/61) No matches
06 [4b3e87d5] (02/63) Accurately ripped
07 [72d5b7d1] (02/64) Accurately ripped
08 [2d2de4bd] (02/62) Accurately ripped
09 [4d9ba2b0] (02/64) Accurately ripped
10 [186046a3] (02/63) Accurately ripped
11 [532dfe30] (03/64) Accurately ripped
12 [b479d8f4] (03/65) Accurately ripped
13 [1e2d1f3e] (03/65) Accurately ripped
14 [e05b9c9e] (02/64) Accurately ripped
15 [7cf9a0d6] (00/63) No matches
16 [15408062] (00/63) No matches

Track [ CRC32 ] [W/O NULL] [ LOG ]
-- [C0DF58E8] [DE436807] CRC32
01 [D6A979C7] [F74E7A33]
02 [4AAAA7B4] [40073D10]
03 [BA22609E] [B7181991]
04 [CF224751] [4F2366ED]
05 [51D60814] [B08E7C97]
06 [16F2B01F] [1C5B4E14]
07 [B943BBFD] [92E5261B]
08 [31870CD2] [0ED61C06]
09 [83B76936] [6307F067]
10 [107EC45F] [93F9A585]
11 [BCB63F81] [44EC4AB0]
12 [83C5080E] [0D956BF3]
13 [4CAA69DC] [EA6CBEB5]
14 [5C1DB61F] [943CC5EF]
15 [BD377727] [42EF208C]
16 [572A4D92] [9BC2F1F7]

Этот торрент недоступен для скачивания без регистрации, однако доступен по публичной magnet-ссылке (источники с публичных трекеров). Перед использованием ссылки прочтите, пожалуйста Пользовательское соглашение, а также как можно дольше оставайтесь на раздаче! Для того, чтобы скачать сам торрент-файл (который видит больше источников), а также для того, чтобы поблагодарить релизера, вам необходимо зарегистрироваться. Если регистрироваться лень - вы можете также попробовать скачать релиз по нашим партнерским ссылкам ниже. Кроме того, зарегистрированным пользователям не показывается всплывающая реклама при скачивании.

[underverse.su].t5568.torrent
Трекер: Зарегистрирован   [ 02.09.2009 13:09 ]  

Статус: проверено (by ZondeR at 02.09.2009 19:56)
Поблагодарили: пока никто не поблагодарил...
Тип торрента: публичный - доступные источники с открытых трекеров: 
Размер: 397 MB (занимает 0,09 DVDR, для записи нужно 1 болванка DVDR/RW)
 
 
Похожие темы
Форум Тема Автор Торрент Отв. Посл. сооб.
Вокальные и хоровые искусства (Classical) Jamie Barton - All Who Wander (Mahler, Dvorak, Sibelius; Zeger) (2016) [MP3, 320 kbps CBR] Darkferse
0 | 0

0 | 802

3

04.09.2017 21:29

Вокальные и хоровые искусства (Classical, Romantic) Elina Garanca, Orquestra de la Comunitat Valenciana, Roberto Abbado - Revive (2016) [MP3, 320 kbps CBR] Darkferse
1 | 0

0 | 708

4

04.09.2017 21:42

Вокальные и хоровые искусства (Classical) Khoren Mekanejian - Khorenian Divine Liturgy (Choir of St. Gregory the Illuminator Cathedral) (2017) [MP3, 320 kbps CBR] Darkferse
2 | 0

0 | 650

3

04.09.2017 22:35

Оркестровая музыка (Classical) Прокофьев - Complete Symphonies/Полное собрание Симфоний [Валерий Гергиев, London Symphony Orchestra] (2006) [MP3, 320 kbps] Jimmy
2 | 2

0 | 2841

19

18.12.2013 17:55

Оркестровая музыка (Classical) Прокофьев - Complete Piano Concertos/Полное собрание Концертов для фортепиано [Александр Торадзе, Валерий Гергиев] (1997) [MP3, 320 kbps] Jimmy
1 | 0

0 | 2998

15

19.12.2013 16:52

Оркестровая музыка (Classical) Beethoven/Бетховен - Complete Symphonies and Piano Concertos/Полное собрание Симфоний и Концертов для фортепиано [Otto Klemperer, Daniel Barenboim] (2000) [MP3, 320 kbps] Jimmy
6 | 1

0 | 3178

20

24.12.2013 15:37

Оркестровая музыка (Classical) Шостакович - Полное собрание Симфоний / Complete Symphonies (Василий Петренко / Vasily Petrenko) (2015) [MP3, 320 kbps CBR] Darkferse
6 | 1

0 | 602

8

28.12.2017 00:17

Камерная и инструментальная музыка (Classical) Вольфганг Амадей Моцарт / Wolfgang Amadeus Mozart - Romantic Classic (1999) [MP3, 320 kbps CBR] terra07
2 | 0

1 | 4170

55

13.04.2015 16:28

Классическая музыка в современной обработке (Classical Symphony) Serj Tankian - ORCA (2012) [MP3, 320 kbps] Jimmy
1 | 0

0 | 2024

55

02.12.2012 11:21

Классическая музыка в современной обработке (Classical / Electronic) Maksim Mrvica - Discography (1999-2010) [MP3, 320 kbps CBR] Печаль'ka
2 | 0

0 | 2482

48

23.07.2013 09:51

08-Окт-2010 21:24

Топик был перенесен из форума Вокальные и хоровые искусства lossless в форум Архив


[cron robot]
 

Яндекс.Метрика powered by Sphinx


В Н И М А Н И Е
Сайт не распространяет и не хранит электронные версии произведений, а лишь бесплатно и без коммерческой выгоды (не требуя взамен платы,
SMS и т.д.) предоставляет доступ к создаваемому пользователями каталогу ссылок на торрент-файлы, которые содержат только списки хеш-сумм.
Убедительная просьба с жалобами обращаться напрямую к пользователю, разместившему торрент файл.

Вверх