Loading...
Error

Лига Справедливости против Юных Титанов / Justice League vs. Teen Titans (Сэм Лью) [2016 г., мультфильм, боевик, фантастика, фэнтези, BDRip 1080p] MVO + Original + Subs

Статистика раздачи
Размер:  6,36 GB   |    Зарегистрирован:  2 года 4 месяца   |    Скачан:  13 раз

Полного источника не было: 6 месяцев

Сидов:  0  |  0 KB/s  ]   Личеров:  0  |  0 KB/s  ]

* - сиды/пиры с внешних источников

   
 
Автор Сообщение

makkol Пол:Муж

12-Апр-2016 15:16

Лига Справедливости против Юных Титанов
Justice League vs. Teen Titans


Год выпуска: 2016
Жанр: мультфильм, боевик, фантастика, фэнтези
Производство: США [DC Comics, Warner Bros. Animation]
Режиссер: Сэм Лью
Роли озвучивали: Розарио Доусон, Кристофер Горам, Шемар Мур, Джерри О`Коннелл, Джейсон О’Мара, Стюарт Аллан, Джейк Т. Остин, Таисса Фармига, Шон Маэр, Брэндон Су Ху
Сюжет фильма:
Зрителей ждет новая встреча с любимыми супер героями. На этот раз их юным последователям предстоит пережить множество непростых испытаний. Робин потерпел неудачу в новой миссии Лиги Справедливости. Теперь Лига не доверяет ему и он должен уйти. Но Робин не собирается покидать свою деятельность и погибать в одиночестве. Он решил присоединиться к команде, которая носит название Юные Титаны. Он считает, что лучше вписывается в данную команду, ведь в неё вошли только самые лучшие подростки. Как раз в это время Земле начала угрожать опасность. Тригон начал вынашивать очень серьезный план и собирался поработить Землю. Он хочет получить власть над лучшими героями – чудо-женщиной, Бэтменом, Киборгом, Флэшем и остальными.

  • Мировая премьера: 26 марта 2016


Качество видео: BDRip 1080p

Продолжительность: 01:19:10
Формат: MKV
Видео: MPEG-4 AVC, 1920x1080 (16:9), 23.976 fps, 7275 kbps
Аудио #1: русский, профессиональный многоголосый закадровый (мультики-онлайн-24), DTS 5.1, 48 kHz, 1509 kbps
Аудио #2: русский, профессиональный многоголосый закадровый (мультики-онлайн-24), AC3 5.1, 448 kbps
Аудио #3: английский, оригинал, DTS 5.1, 48 kHz, 1509 kbps
Аудио #4: английский, оригинал, AC3 5.1, 48 kHz, 448 kbps
Субтитры: русские, немецкие, французские, английские вшитые отключаемые

Код:

Format                                   : Matroska
Format version                           : Version 4 / Version 2
File size                                : 6.36 GiB
Duration                                 : 1h 19mn
Overall bit rate                         : 11.5 Mbps
Encoded date                             : UTC 2016-04-12 12:22:17
Writing application                      : mkvmerge v9.0.1 ('Obstacles') 64bit
Writing library                          : libebml v1.3.3 + libmatroska v1.4.4
 
Video
ID                                       : 1
Format                                   : AVC
Format/Info                              : Advanced Video Codec
Format profile                           : High@L4.1
Format settings, CABAC                   : Yes
Format settings, ReFrames                : 4 frames
Codec ID                                 : V_MPEG4/ISO/AVC
Duration                                 : 1h 19mn
Bit rate                                 : 7 575 Kbps
Width                                    : 1 920 pixels
Height                                   : 1 080 pixels
Display aspect ratio                     : 16:9
Frame rate mode                          : Constant
Frame rate                               : 23.976 (24000/1001) fps
Color space                              : YUV
Chroma subsampling                       : 4:2:0
Bit depth                                : 8 bits
Scan type                                : Progressive
Bits/(Pixel*Frame)                       : 0.152
Stream size                              : 4.19 GiB (66%)
Title                                    : Justice League vs. Teen Titans (2016)
Writing library                          : x264 core 148 r2665kMod a01e339
Encoding settings                        : cabac=1 / ref=4 / deblock=1:0:0 / analyse=0x3:0x133 / me=umh / subme=10 / psy=1 / fade_compensate=0.00 / psy_rd=1.00:0.00 / mixed_ref=1 / me_range=24 / chroma_me=1 / trellis=2 / 8x8dct=1 / cqm=0 / deadzone=21,11 / fast_pskip=1 / chroma_qp_offset=-2 / threads=10 / lookahead_threads=1 / sliced_threads=0 / slices=4 / nr=0 / decimate=1 / interlaced=0 / bluray_compat=0 / constrained_intra=0 / fgo=0 / bframes=8 / b_pyramid=2 / b_adapt=2 / b_bias=0 / direct=3 / weightb=1 / open_gop=0 / weightp=2 / keyint=240 / keyint_min=25 / scenecut=40 / intra_refresh=0 / rc_lookahead=60 / rc=2pass / mbtree=1 / bitrate=7575 / ratetol=1.0 / qcomp=0.60 / qpmin=0 / qpmax=69 / qpstep=4 / cplxblur=20.0 / qblur=0.5 / ip_ratio=1.40 / aq=1:1.00
Language                                 : English
Default                                  : Yes
Forced                                   : No
 
Audio #1
ID                                       : 2
Format                                   : DTS
Format/Info                              : Digital Theater Systems
Mode                                     : 16
Format settings, Endianness              : Big
Codec ID                                 : A_DTS
Duration                                 : 1h 19mn
Bit rate mode                            : Constant
Bit rate                                 : 1 509 Kbps
Channel(s)                               : 6 channels
Channel positions                        : Front: L C R, Side: L R, LFE
Sampling rate                            : 48.0 KHz
Frame rate                               : 93.750 fps (512 spf)
Bit depth                                : 24 bits
Compression mode                         : Lossy
Stream size                              : 855 MiB (13%)
Title                                    : DTS 5.1 48kHz@1509kbps (24-bit)
Language                                 : Russian
Default                                  : Yes
Forced                                   : No
 
Audio #2
ID                                       : 3
Format                                   : AC-3
Format/Info                              : Audio Coding 3
Mode extension                           : CM (complete main)
Format settings, Endianness              : Big
Codec ID                                 : A_AC3
Duration                                 : 1h 19mn
Bit rate mode                            : Constant
Bit rate                                 : 448 Kbps
Channel(s)                               : 6 channels
Channel positions                        : Front: L C R, Side: L R, LFE
Sampling rate                            : 48.0 KHz
Frame rate                               : 31.250 fps (1536 spf)
Compression mode                         : Lossy
Stream size                              : 254 MiB (4%)
Title                                    : AC3 5.1 48kHz@448kbps
Language                                 : Russian
Default                                  : No
Forced                                   : No
 
Audio #3
ID                                       : 4
Format                                   : DTS
Format/Info                              : Digital Theater Systems
Mode                                     : 16
Format settings, Endianness              : Big
Codec ID                                 : A_DTS
Duration                                 : 1h 19mn
Bit rate mode                            : Constant
Bit rate                                 : 1 509 Kbps
Channel(s)                               : 6 channels
Channel positions                        : Front: L C R, Side: L R, LFE
Sampling rate                            : 48.0 KHz
Frame rate                               : 93.750 fps (512 spf)
Bit depth                                : 24 bits
Compression mode                         : Lossy
Stream size                              : 855 MiB (13%)
Title                                    : DTS 5.1 48kHz@1509kbps (24-bit)
Language                                 : English
Default                                  : No
Forced                                   : No
 
Audio #4
ID                                       : 5
Format                                   : AC-3
Format/Info                              : Audio Coding 3
Mode extension                           : CM (complete main)
Format settings, Endianness              : Big
Codec ID                                 : A_AC3
Duration                                 : 1h 19mn
Bit rate mode                            : Constant
Bit rate                                 : 448 Kbps
Channel(s)                               : 6 channels
Channel positions                        : Front: L C R, Side: L R, LFE
Sampling rate                            : 48.0 KHz
Frame rate                               : 31.250 fps (1536 spf)
Compression mode                         : Lossy
Stream size                              : 254 MiB (4%)
Title                                    : AC3 5.1 48kHz@448kbps
Language                                 : English
Default                                  : No
Forced                                   : No
 
Text #1
ID                                       : 6
Format                                   : ASS
Codec ID                                 : S_TEXT/ASS
Codec ID/Info                            : Advanced Sub Station Alpha
Duration                                 : 1h 16mn
Bit rate                                 : 0 bps
Count of elements                        : 2
Compression mode                         : Lossless
Stream size                              : 336 Bytes (0%)
Title                                    : Forced (ass)
Language                                 : Russian
Default                                  : Yes
Forced                                   : Yes
 
Text #2
ID                                       : 7
Format                                   : ASS
Codec ID                                 : S_TEXT/ASS
Codec ID/Info                            : Advanced Sub Station Alpha
Duration                                 : 1h 16mn
Bit rate                                 : 104 bps
Count of elements                        : 699
Compression mode                         : Lossless
Stream size                              : 58.5 KiB (0%)
Title                                    : (ass)
Language                                 : Russian
Default                                  : No
Forced                                   : No
 
Text #3
ID                                       : 8
Format                                   : UTF-8
Codec ID                                 : S_TEXT/UTF8
Codec ID/Info                            : UTF-8 Plain Text
Duration                                 : 1h 18mn
Bit rate                                 : 66 bps
Count of elements                        : 700
Stream size                              : 38.7 KiB (0%)
Language                                 : Russian
Default                                  : No
Forced                                   : No
 
Text #4
ID                                       : 9
Format                                   : UTF-8
Codec ID                                 : S_TEXT/UTF8
Codec ID/Info                            : UTF-8 Plain Text
Duration                                 : 1h 18mn
Bit rate                                 : 48 bps
Count of elements                        : 767
Stream size                              : 28.1 KiB (0%)
Language                                 : German
Default                                  : No
Forced                                   : No
 
Text #5
ID                                       : 10
Format                                   : UTF-8
Codec ID                                 : S_TEXT/UTF8
Codec ID/Info                            : UTF-8 Plain Text
Duration                                 : 1h 18mn
Bit rate                                 : 38 bps
Count of elements                        : 746
Stream size                              : 22.5 KiB (0%)
Language                                 : French
Default                                  : No
Forced                                   : No
 
Text #6
ID                                       : 11
Format                                   : UTF-8
Codec ID                                 : S_TEXT/UTF8
Codec ID/Info                            : UTF-8 Plain Text
Duration                                 : 1h 16mn
Bit rate                                 : 43 bps
Count of elements                        : 818
Stream size                              : 24.2 KiB (0%)
Language                                 : English
Default                                  : No
Forced                                   : No
 
Text #7
ID                                       : 12
Format                                   : UTF-8
Codec ID                                 : S_TEXT/UTF8
Codec ID/Info                            : UTF-8 Plain Text
Duration                                 : 1h 18mn
Bit rate                                 : 44 bps
Count of elements                        : 962
Stream size                              : 25.7 KiB (0%)
Title                                    : SDH
Language                                 : English
Default                                  : No
Forced                                   : No
 
Menu
00:00:00.000                             : en:00:00:00
00:09:58.431                             : en:00:09:58
00:19:48.938                             : en:00:19:48
00:29:27.182                             : en:00:29:27
00:39:29.951                             : en:00:39:29
00:49:36.974                             : en:00:49:36
00:59:47.542                             : en:00:59:47
01:09:06.809                             : en:01:09:06
Релиз:

picpicpicpicpic
Для увеличения картинки щелкните мышкой по превью

Этот торрент недоступен для скачивания без регистрации, однако доступен по публичной magnet-ссылке (источники с публичных трекеров). Перед использованием ссылки прочтите, пожалуйста Пользовательское соглашение, а также как можно дольше оставайтесь на раздаче! Для того, чтобы скачать сам торрент-файл (который видит больше источников), а также для того, чтобы поблагодарить релизера, вам необходимо зарегистрироваться. Если регистрироваться лень - вы можете также попробовать скачать релиз по нашим партнерским ссылкам ниже. Кроме того, зарегистрированным пользователям не показывается всплывающая реклама при скачивании.

[underverse.su].t65091.torrent
Трекер: Зарегистрирован   [ 12.04.2016 15:16 ]  

Статус: проверено (by Паукан at 12.04.2016 19:26)
Поблагодарили: 1 человек
Тип торрента: публичный - доступные источники с открытых трекеров: 
Размер: 6,36 GB (занимает 1,45 DVDR, для записи нужно 2 болванки DVDR/RW)
 
 
Похожие темы
Форум Тема Автор Торрент Отв. Посл. сооб.
T Зарубежное кино [DVDRip, Low-Res HDRip, и т.д.] Лига справедливости / Justice League (Зак Снайдер) [2017 г., фантастика, фэнтези, боевик, приключения, HDTVRip] Dub (звук с TS) makkol
23 | 0

0 | 1821

50

21.12.2017 10:35

T Зарубежное кино [DVDRip, Low-Res HDRip, и т.д.] Лига справедливости / Justice League (Зак Снайдер) [2017 г., фантастика, фэнтези, боевик, приключения, HDTVRip] MVO (Синема УС) makkol
31 | 2

0 | 1347

59

23.12.2017 21:18

T Зарубежное кино [DVDRip, Low-Res HDRip, и т.д.] Лига справедливости / Justice League (Зак Снайдер) [2017 г., фантастика, фэнтези, боевик, приключения, WEB-DLRip] Dub (Line) makkol
13 | 0

0 | 606

24

07.02.2018 21:19

T Зарубежное кино [DVDRip, Low-Res HDRip, и т.д.] Лига справедливости / Justice League (Зак Снайдер) [2017 г., фантастика, фэнтези, боевик, приключения, WEB-DLRip] Dub (Line) makkol
15 | 1

0 | 721

20

07.02.2018 21:26

T Зарубежное кино [DVDRip, Low-Res HDRip, и т.д.] Лига справедливости / Justice League (Зак Снайдер) [2017 г., фантастика, фэнтези, боевик, приключения, WEB-DLRip] Dub (iTunes) makkol
78 | 4

0 | 877

28

13.02.2018 21:52

T Зарубежное кино [DVDRip, Low-Res HDRip, и т.д.] Лига справедливости / Justice League (Зак Снайдер) [2017 г., фантастика, фэнтези, боевик, приключения, WEB-DLRip-AVC] Dub (iTunes) + Original + Sub makkol
13 | 3

0 | 686

27

14.02.2018 13:30

T Зарубежное кино [DVDRip, Low-Res HDRip, и т.д.] Лига справедливости / Justice League (Зак Снайдер / Zack Snyder) [2017 г., фантастика, фэнтези, боевик, приключения, супергерой, HDRip] Dub (iTunes) + Sub (Rus) 90ytr90
6 | 3

0 | 552

11

25.02.2018 17:58

T Зарубежное кино [DVDRip, Low-Res HDRip, и т.д.] Лига справедливости / Justice League (Зак Снайдер / Zack Snyder) [2017 г., фантастика, фэнтези, боевик, приключения, BDRip-AVC] Dub (iTunes) + Original (Eng) + Sub (Rus, Eng) + hardsub (Rus) 90ytr90
1 | 0

0 | 360

9

03.03.2018 06:48

Зарубежное кино [DVDRip, Low-Res HDRip, и т.д.] Лига справедливости / Justice League (Зак Снайдер / Zack Snyder) [2017 г., фантастика, фэнтези, боевик, приключения, супергерой, BDRip] Dub + Sub (Rus) 90ytr90
852 | 22

0 | 4312

30

07.03.2018 10:41

Зарубежное кино [DVDRip, Low-Res HDRip, и т.д.] Лига справедливости / Justice League (Зак Снайдер / Zack Snyder) [2017 г., фантастика, фэнтези, боевик, приключения, супергерой, BDRip-AVC] Dub + Original (Eng) + Sub (Rus, Eng) + hardsub (Rus) 90ytr90
83 | 3

0 | 680

5

07.03.2018 11:12


Яндекс.Метрика powered by Sphinx


В Н И М А Н И Е
Сайт не распространяет и не хранит электронные версии произведений, а лишь бесплатно и без коммерческой выгоды (не требуя взамен платы,
SMS и т.д.) предоставляет доступ к создаваемому пользователями каталогу ссылок на торрент-файлы, которые содержат только списки хеш-сумм.
Убедительная просьба с жалобами обращаться напрямую к пользователю, разместившему торрент файл.

Вверх