Loading...
Error

Лунный флаг / Capture the Flag (Энрике Гато) [2015 г., мультфильм, комедия, приключения, BDRip 1080p] Dub (iTunes) + Original + Subs

Статистика раздачи
Размер:  6,66 GB   |    Зарегистрирован:  2 года 1 месяц   |    Скачан:  5 раз

Полного источника не было: 1 год 4 месяца

Сидов:  0  |  0 KB/s  ]   Личеров:  0  |  0 KB/s  ]

* - сиды/пиры с внешних источников

   
 
Автор Сообщение

makkol Пол:Муж

21-Июн-2016 10:13

Лунный флаг / Capture the Flag


Год выпуска: 2015
Жанр: мультфильм, комедия, приключения
Производство: Испания [4 Cats Pictures, Lightbox Entertainment, Rockets La Película]
Режиссер: Энрике Гато
Роли озвучивали: Дэни Ровира, Мишель Хеннер, Карме Калвелл, Хавьер Балас, Камилло Гарсия, Тони Мора, Марта Барбара, Фернандо Гарсия Кабрера, Ксавьер Касан, Ориол Тарраго
Сюжет фильма:
12-летний Майк вместе со своими друзьями пытается спасти Луну от захвата злобным миллиардером Карсоном. Но для этого надо всего лишь… полететь в космос. Удастся ли обыкновенным подросткам пробраться на космическую базу, прилуниться и победить коварного злодея? Для этого понадобится помощь друзей, верной домашней ящерицы и родного деда. Большое космическое приключение, объединившее всю семью, начинается!

  • Мировая премьера: 28 августа 2015
  • Российская премьера: 24 марта 2016


Качество видео: BDRip 1080p

Продолжительность: 01:34:39
Формат: MKV
Видео: MPEG-4 AVC, 1920x804 (2.40:1), 23.976 fps, 8842 kbps
Аудио #1: русский, дублированный (iTunes), AC3 5.1, 48 kHz, 384 kbps
Аудио #2: английский, оригинал, AC3 5.1, 48 kHz, 640 kbps
Субтитры: русские, английские вшитые отключаемые

Код:

Format : Matroska
Format version : Version 4 / Version 2
File size : 6.66 GiB
Duration : 1h 34mn
Overall bit rate : 10.1 Mbps
Encoded date : UTC 2016-06-21 07:04:31
Writing application : mkvmerge v7.1.0 ('Good Love') 64bit built on Jul 27 2014 13:06:55
Writing library : libebml v1.3.0 + libmatroska v1.4.1
_STATISTICS_WRITING_APP : mkvmerge v7.1.0 ('Good Love') 64bit built on Jul 27 2014 13:06:55
_STATISTICS_WRITING_DATE_UTC : 2016-06-21 07:04:31
_STATISTICS_TAGS : BPS DURATION NUMBER_OF_FRAMES NUMBER_OF_BYTES
DURATION : 01:34:38.976000000
NUMBER_OF_FRAMES : 177468
NUMBER_OF_BYTES : 454318080

Video
ID : 1
Format : AVC
Format/Info : Advanced Video Codec
Format profile : High@L4.1
Format settings, CABAC : Yes
Format settings, ReFrames : 5 frames
Codec ID : V_MPEG4/ISO/AVC
Duration : 1h 34mn
Bit rate : 8 842 Kbps
Width : 1 920 pixels
Height : 804 pixels
Display aspect ratio : 2.40:1
Frame rate mode : Constant
Frame rate : 23.976 fps
Color space : YUV
Chroma subsampling : 4:2:0
Bit depth : 8 bits
Scan type : Progressive
Bits/(Pixel*Frame) : 0.239
Stream size : 5.85 GiB (88%)
Writing library : x264 core 142 r2431+42 c69a006 tMod [8-bit@all X86_64]
Encoding settings : cabac=1 / ref=5 / deblock=1:-1:-1 / analyse=0x3:0x133 / me=umh / subme=11 / psy=1 / fade_compensate=0.00 / psy_rd=0.40:0.00 / mixed_ref=1 / me_range=32 / chroma_me=1 / trellis=2 / 8x8dct=1 / cqm=0 / deadzone=21,11 / fast_pskip=0 / chroma_qp_offset=-2 / threads=60 / lookahead_threads=6 / sliced_threads=0 / nr=0 / decimate=0 / interlaced=0 / bluray_compat=0 / constrained_intra=0 / fgo=0 / bframes=8 / b_pyramid=2 / b_adapt=2 / b_bias=0 / direct=3 / weightb=1 / open_gop=0 / weightp=2 / keyint=240 / keyint_min=23 / scenecut=40 / intra_refresh=0 / rc_lookahead=60 / rc=crf / mbtree=0 / crf=15.0000 / qcomp=0.60 / qpmin=0:0:0 / qpmax=69:69:69 / qpstep=4 / vbv_maxrate=40000 / vbv_bufsize=30000 / crf_max=0.0 / nal_hrd=none / filler=0 / ip_ratio=1.40 / pb_ratio=1.30 / aq=1:0.60 / aq-sensitivity=10.00 / aq-factor=1.00:1.00:1.00 / aq2=0 / aq3=0
Language : English
Default : Yes
Forced : No

Audio #1
ID : 2
Format : AC-3
Format/Info : Audio Coding 3
Mode extension : CM (complete main)
Format settings, Endianness : Big
Codec ID : A_AC3
Duration : 1h 34mn
Bit rate mode : Constant
Bit rate : 384 Kbps
Channel(s) : 6 channels
Channel positions : Front: L C R, Side: L R, LFE
Sampling rate : 48.0 KHz
Bit depth : 16 bits
Compression mode : Lossy
Stream size : 260 MiB (4%)
Title : iTunes
Language : Russian
Default : Yes
Forced : No

Audio #2
ID : 3
Format : AC-3
Format/Info : Audio Coding 3
Mode extension : CM (complete main)
Format settings, Endianness : Big
Codec ID : A_AC3
Duration : 1h 34mn
Bit rate mode : Constant
Bit rate : 640 Kbps
Channel(s) : 6 channels
Channel positions : Front: L C R, Side: L R, LFE
Sampling rate : 48.0 KHz
Bit depth : 16 bits
Compression mode : Lossy
Stream size : 433 MiB (6%)
Language : English
Default : No
Forced : No

Text #1
ID : 4
Format : UTF-8
Codec ID : S_TEXT/UTF8
Codec ID/Info : UTF-8 Plain Text
Language : Russian
Default : No
Forced : No

Text #2
ID : 5
Format : UTF-8
Codec ID : S_TEXT/UTF8
Codec ID/Info : UTF-8 Plain Text
Language : English
Default : No
Forced : No

Text #3
ID : 6
Format : UTF-8
Codec ID : S_TEXT/UTF8
Codec ID/Info : UTF-8 Plain Text
Title : SDH
Language : English
Default : No
Forced : No
Релиз без рекламы


picpicpicpicpic
Для увеличения картинки щелкните мышкой по превью

Этот торрент недоступен для скачивания без регистрации, однако доступен по публичной magnet-ссылке (источники с публичных трекеров). Перед использованием ссылки прочтите, пожалуйста Пользовательское соглашение, а также как можно дольше оставайтесь на раздаче! Для того, чтобы скачать сам торрент-файл (который видит больше источников), а также для того, чтобы поблагодарить релизера, вам необходимо зарегистрироваться. Если регистрироваться лень - вы можете также попробовать скачать релиз по нашим партнерским ссылкам ниже. Кроме того, зарегистрированным пользователям не показывается всплывающая реклама при скачивании.

[underverse.su].t67382.torrent
Трекер: Зарегистрирован   [ 21.06.2016 10:13 ]  

Статус: T временная (by makkol at 24.06.2016 23:17)
Поблагодарили: пока никто не поблагодарил...
Тип торрента: публичный - доступные источники с открытых трекеров: 
Размер: 6,66 GB (занимает 1,52 DVDR, для записи нужно 2 болванки DVDR/RW)
 
 
Похожие темы
Форум Тема Автор Торрент Отв. Посл. сооб.
Зарубежные мультфильмы Лунный флаг / Capture the Flag (Энрике Гато / Enrique Gato) [2015 г., мультфильм, комедия, приключения, BDRip] DVO (2D) 90ytr90
2 | 0

0 | 1090

15

17.03.2016 17:13

Мультфильмы [HDDVDRip / BDRip / WEB-DL / HDTV 1080/720р] Лунный флаг / Capture the Flag (Энрике Гато) [2015 г., мультфильм, комедия, приключения, BDRip 720p] DVO + Original makkol
1 | 0

0 | 736

16

08.03.2016 23:03

T Мультфильмы [HDDVDRip / BDRip / WEB-DL / HDTV 1080/720р] Лунный флаг / Capture the Flag (Энрике Гато) [2015 г., мультфильм, комедия, приключения, BDRip 720p] Dub (iTunes) + Original makkol
7 | 0

0 | 905

15

21.06.2016 10:02

Архив (мультфильмы) Лунный флаг / Capture the Flag (Энрике Гато) [2015 г., мультфильм, комедия, приключения, HDRip] DVO makkol
0 | 0

1 | 833

25

31.01.2018 17:13

T Архив (мультфильмы) Лунный флаг / Capture the Flag (Энрике Гато) [2015 г., мультфильм, комедия, приключения, HDRip] Dub (iTunes) makkol
0 | 0

1 | 944

9

24.05.2018 22:39


Яндекс.Метрика powered by Sphinx


В Н И М А Н И Е
Сайт не распространяет и не хранит электронные версии произведений, а лишь бесплатно и без коммерческой выгоды (не требуя взамен платы,
SMS и т.д.) предоставляет доступ к создаваемому пользователями каталогу ссылок на торрент-файлы, которые содержат только списки хеш-сумм.
Убедительная просьба с жалобами обращаться напрямую к пользователю, разместившему торрент файл.

Вверх