Loading...
Error

Золото Одина / TRIO: Odins Gull / TRIO: Odins Gold (Атле Кнудсен) [2014 г., приключения, семейный, HDTVRip 1080p] MVO

Статистика раздачи
Размер:  8,65 GB   |    Зарегистрирован:  2 года 4 месяца   |    Скачан:  7 раз

Полного источника не было: 7 дней

Сидов:  0  |  0 KB/s  ]   Личеров:  0  |  0 KB/s  ]

* - сиды/пиры с внешних источников

   
 
Автор Сообщение

makkol Пол:Муж

09-Июл-2016 09:58

Золото Одина / TRIO: Odins Gull / TRIO: Odins Gold


Год выпуска: 2014
Жанр: приключения, семейный
Производство: Норвегия [NordicStories, Fabelaktiv, Norddeutscher Rundfunk (NDR)]
Режиссер: Атле Кнудсен
В ролях: Наоми Хассельберг Торсруд, Оскар Линдквист, Бьёрнар Лисфосс Хагесвеен, Рейдар Сёренсен, Андрэ Эриксон, Теа Бэй, Камилла Аугуста Халлан, Гьермунд Матисен, Ибрахим Лайки
Сюжет фильма:
Одиннадцатилетняя Нора переезжает в небольшой городок и в первый же день в школе заводит знакомство с двумя приятелями – Симоном и Ларсом. Вскоре ребята узнают, что вблизи их населенного пункта в раннем средневековье было спрятано сокровище, известное под названием "Золото Одина". Наши герои решают отправиться по следам этой легенды, несмотря на то, что Ларс после аварии не может самостоятельно передвигаться, и что очень многие кладоискатели в процессе поиска этого сокровища пропали без вести.

Качество видео: HDTVRip 1080p

Продолжительность: 10 x ~00:24:00
Формат: MKV
Видео: MPEG-4 AVC, 1920x1080 (16:9), 25.000 fps, 5000 kbps
Аудио: русский, профессиональный многоголосый закадровый, AC3 2.0, 48 kHz, 192 kbps

Код:

Формат                                   : Matroska
Версия формата                           : Version 4 / Version 2
Размер файла                             : 884 Мбайт
Продолжительность                        : 24 м.
Режим общего битрейта                    : Постоянный
Общий поток                              : 5125 Кбит/сек
Дата кодирования                         : UTC 2016-06-16 23:20:04
Программа кодирования                    : mkvmerge v7.9.0 ('Birds') 64bit
Библиотека кодирования                   : libebml v1.3.1 + libmatroska v1.4.2

Видео
Идентификатор                            : 1
Формат                                   : AVC
Формат/Информация                        : Advanced Video Codec
Профиль формата                          : High@L4.1
Параметр CABAC формата                   : Да
Параметр ReFrames формата                : 3 кадра
Идентификатор кодека                     : V_MPEG4/ISO/AVC
Продолжительность                        : 24 м.
Вид битрейта                             : Постоянный
Битрейт                                  : 5000 Кбит/сек
Ширина                                   : 1920 пикселей
Высота                                   : 1080 пикселей
Соотношение сторон                       : 16:9
Режим частоты кадров                     : Постоянный
Частота кадров                           : 25,000 кадров/сек
Стандарт вещания                         : PAL
Цветовое пространство                    : YUV
Субдискретизация насыщенности            : 4:2:0
Битовая глубина                          : 8 бит
Тип развёртки                            : Прогрессивная
Бит/(Пиксели*Кадры)                      : 0.096
Размер потока                            : 834 Мбайт (94%)
Язык                                     : English
Default                                  : Да
Forced                                   : Нет
Цветовой диапазон                        : Limited
Основные цвета                           : BT.709
Характеристики трансфера                 : BT.709
Коэффициенты матрицы                     : BT.709

Аудио
Идентификатор                            : 2
Формат                                   : AC-3
Формат/Информация                        : Audio Coding 3
Расширение режима                        : CM (complete main)
Параметр Endianness формата              : Big
Идентификатор кодека                     : A_AC3
Продолжительность                        : 24 м.
Вид битрейта                             : Постоянный
Битрейт                                  : 192 Кбит/сек
Каналы                                   : 2 канала
Расположение каналов                     : Front: L R
Частота                                  : 48,0 КГц
Метод сжатия                             : С потерями
Размер потока                            : 33,1 Мбайт (4%)
Язык                                     : Russian
Default                                  : Да
Forced                                   : Нет
picpicpicpicpic
Для увеличения картинки щелкните мышкой по превью

Этот торрент недоступен для скачивания без регистрации, однако доступен по публичной magnet-ссылке (источники с публичных трекеров). Перед использованием ссылки прочтите, пожалуйста Пользовательское соглашение, а также как можно дольше оставайтесь на раздаче! Для того, чтобы скачать сам торрент-файл (который видит больше источников), а также для того, чтобы поблагодарить релизера, вам необходимо зарегистрироваться. Если регистрироваться лень - вы можете также попробовать скачать релиз по нашим партнерским ссылкам ниже. Кроме того, зарегистрированным пользователям не показывается всплывающая реклама при скачивании.

[underverse.su].t67932.torrent
Трекер: Зарегистрирован   [ 09.07.2016 09:58 ]  

Статус: проверено (by makkol at 10.07.2016 23:24)
Поблагодарили: пока никто не поблагодарил...
Тип торрента: публичный - доступные источники с открытых трекеров: 
Размер: 8,65 GB (занимает 1,98 DVDR, для записи нужно 2 болванки DVDR/RW)
 
 

Яндекс.Метрика powered by Sphinx


В Н И М А Н И Е
Сайт не распространяет и не хранит электронные версии произведений, а лишь бесплатно и без коммерческой выгоды (не требуя взамен платы,
SMS и т.д.) предоставляет доступ к создаваемому пользователями каталогу ссылок на торрент-файлы, которые содержат только списки хеш-сумм.
Убедительная просьба с жалобами обращаться напрямую к пользователю, разместившему торрент файл.

Вверх