Loading...
Error

Киберзолото / TRIO: Cybergullet / TRIO: Cybergold (Маргрет Бергхайм) [2015 г., приключения, семейный, HDTVRip 1080p] MVO

Статистика раздачи
Размер:  8,7 GB   |    Зарегистрирован:  2 года 3 месяца   |    Скачан:  6 раз

Полного источника не было: 57 минут

Сидов:  0  |  0 KB/s  ]   Личеров:  0  |  0 KB/s  ]

* - сиды/пиры с внешних источников

   
 
Автор Сообщение

makkol Пол:Муж

20-Июл-2016 12:50

Киберзолото / TRIO: Cybergullet / TRIO: Cybergold


Год выпуска: 2015
Жанр: приключения, семейный
Производство: Норвегия [NordicStories]
Режиссер: Маргрет Бергхайм
В ролях: Наоми Хассельберг Торсруд, Оскар Линдквист, Бьёрнар Лисфосс Хагесвеен, Рейдар Сёренсен, Матс Элдоен, Камилла Аугуста Халлан, Франциска Тёрнквист, Рагнхильд Ваннебо
Сюжет фильма:
Опасный преступник решается на организованную хакерскую атаку, чтобы завладеть золотым запасом Норвегии. Но чтобы не засветиться, он решает подставить отца Ларса. Юным героям предстоит исправить это недоразумение и, по возможности, помочь остановить злодея.

Продолжение сериала Золото Одина. По российскому ТВ они показывались под общим названием Золото Одина.

Качество видео: HDTVRip 1080p

Продолжительность: 10 x ~00:24:00
Формат: MKV
Видео: MPEG-4 AVC, 1920x1080 (16:9), 25.000 fps, 5000 kbps
Аудио: русский, профессиональный многоголосый закадровый, AC3 2.0, 48 kHz, 192 kbps

Код:

Формат                                   : Matroska
Версия формата                           : Version 4 / Version 2
Размер файла                             : 876 Мбайт
Продолжительность                        : 23 м.
Режим общего битрейта                    : Постоянный
Общий поток                              : 5112 Кбит/сек
Дата кодирования                         : UTC 2016-06-24 11:44:34
Программа кодирования                    : mkvmerge v7.9.0 ('Birds') 64bit
Библиотека кодирования                   : libebml v1.3.1 + libmatroska v1.4.2

Видео
Идентификатор                            : 1
Формат                                   : AVC
Формат/Информация                        : Advanced Video Codec
Профиль формата                          : High@L4.1
Параметр CABAC формата                   : Да
Параметр ReFrames формата                : 3 кадра
Параметр GOP формата                     : M=3, N=25
Идентификатор кодека                     : V_MPEG4/ISO/AVC
Продолжительность                        : 23 м.
Вид битрейта                             : Постоянный
Битрейт                                  : 5000 Кбит/сек
Ширина                                   : 1920 пикселей
Высота                                   : 1080 пикселей
Соотношение сторон                       : 16:9
Режим частоты кадров                     : Постоянный
Частота кадров                           : 25,000 кадров/сек
Стандарт вещания                         : PAL
Цветовое пространство                    : YUV
Субдискретизация насыщенности            : 4:2:0
Битовая глубина                          : 8 бит
Тип развёртки                            : Прогрессивная
Бит/(Пиксели*Кадры)                      : 0.096
Размер потока                            : 825 Мбайт (94%)
Язык                                     : English
Default                                  : Да
Forced                                   : Нет
Цветовой диапазон                        : Limited
Основные цвета                           : BT.709
Характеристики трансфера                 : BT.709
Коэффициенты матрицы                     : BT.709

Аудио
Идентификатор                            : 2
Формат                                   : AC-3
Формат/Информация                        : Audio Coding 3
Расширение режима                        : CM (complete main)
Параметр Endianness формата              : Big
Идентификатор кодека                     : A_AC3
Продолжительность                        : 23 м.
Вид битрейта                             : Постоянный
Битрейт                                  : 192 Кбит/сек
Каналы                                   : 2 канала
Расположение каналов                     : Front: L R
Частота                                  : 48,0 КГц
Метод сжатия                             : С потерями
Размер потока                            : 32,9 Мбайт (4%)
Язык                                     : Russian
Default                                  : Да
Forced                                   : Нет
picpicpicpicpic
Для увеличения картинки щелкните мышкой по превью

Этот торрент недоступен для скачивания без регистрации, однако доступен по публичной magnet-ссылке (источники с публичных трекеров). Перед использованием ссылки прочтите, пожалуйста Пользовательское соглашение, а также как можно дольше оставайтесь на раздаче! Для того, чтобы скачать сам торрент-файл (который видит больше источников), а также для того, чтобы поблагодарить релизера, вам необходимо зарегистрироваться. Если регистрироваться лень - вы можете также попробовать скачать релиз по нашим партнерским ссылкам ниже. Кроме того, зарегистрированным пользователям не показывается всплывающая реклама при скачивании.

[underverse.su].t68261.torrent
Трекер: Зарегистрирован   [ 20.07.2016 12:50 ]  

Статус: проверено (by makkol at 23.07.2016 22:34)
Поблагодарили: 1 человек
Тип торрента: публичный - доступные источники с открытых трекеров: 
Размер: 8,7 GB (занимает 1,99 DVDR, для записи нужно 2 болванки DVDR/RW)
 
 

MIHMEBIUS Пол:Муж

06-Янв-2018 17:50

Два сида и не качается! Дайте скачать! :(

Яндекс.Метрика powered by Sphinx


В Н И М А Н И Е
Сайт не распространяет и не хранит электронные версии произведений, а лишь бесплатно и без коммерческой выгоды (не требуя взамен платы,
SMS и т.д.) предоставляет доступ к создаваемому пользователями каталогу ссылок на торрент-файлы, которые содержат только списки хеш-сумм.
Убедительная просьба с жалобами обращаться напрямую к пользователю, разместившему торрент файл.

Вверх