Loading...
Error

(Score) Бэтмен и тайна женщины-летучей мыши / Batman: Mystery of the Batwoman (by Lolita Ritmanis) (2016 (2003)) [FLAC (Tracks+.CUE), lossless]

Статистика раздачи
Размер:  395 MB   |    Зарегистрирован:  2 года   |    Скачан:  1 раз
Сидов:  1  |  0 KB/s  ]   Личеров:  0  |  0 KB/s  ]

* - сиды/пиры с внешних источников

   
 
Автор Сообщение

garry Пол:Муж

25-Июл-2016 10:29

Бэтмен и тайна женщины-летучей мыши / Batman: Mystery of the Batwoman

Жанр: Score
Год выпуска: 2016 (2003)
Источник: CD
Производитель: La-La Land Records LLLCD-1369
Аудиокодек: FLAC
Тип рипа: Tracks+.CUE
Битрейт: lossless
Продолжительность: 01:05:34
01 - Main Title
02 - Opening
03 - He's Been Waiting / Weapons Factory
04 - Start Flexing
05 - The Reason I Called / Rocky Ballantine
06 - Bat-Signal
07 - I'll Get Back to You / Factory / After the Explosion
08 - Chase Through Store / Rear View Mirror
09 - Bruce and Kathy
10 - Real Muscle / Get Out!
11 - Paint the Town
12 - Revolving Door / Time to Burn a Bat
13 - I Was Wrong About You
14 - Subway / Identified
15 - I Don't Want to See You / High Stakes
16 - The Ship Sails Tonight / Batwoman in Flight
17 - Close to Our Goal
18 - This Is It / Ship Leaves the Harbor
19 - Penguin Gets a Call / Trouble
20 - Bon Voyage, Senior Batman
21 - Close Look / It Has to End / Explosions
22 - Ship Is Going Down
23 - Bane's Demise
24 - Bullock Sees Sonia / The Badge
25 - I Missed You
26 - Mystery End Credits

Chase Me
27 - Chase Me
28 - Chase Me End Credits

Bonus Tracks
29 - News Source [Bonus Track]
30 - Piano Source [Bonus Track]
31 - Department Store [Bonus Track]
32 - Rude Interruption [Bonus Track]
33 - Main Title (film version) [Bonus Track]
X Lossless Decoder version 20151214 (149.1)

XLD extraction logfile from 2016-04-02 15:13:23 -0500

Lolita Ritmanis / Batman - Mystery Of The Batwoman (LLLCD 1369)

Used drive : (null) (null) (revision (null))
Media type : Pressed CD

Ripper mode : CDParanoia III 10.2
Disable audio cache : OK for the drive with a cache less than 2750KiB
Make use of C2 pointers : NO
Read offset correction : 103
Max retry count : 100
Gap status : Analyzed, Appended

TOC of the extracted CD
Track | Start | Length | Start sector | End sector
---------------------------------------------------------
1 | 00:00:00 | 02:05:53 | 0 | 9427
2 | 02:05:53 | 04:26:08 | 9428 | 29385
3 | 06:31:61 | 01:13:03 | 29386 | 34863
4 | 07:44:64 | 01:19:25 | 34864 | 40813
5 | 09:04:14 | 01:52:58 | 40814 | 49271
6 | 10:56:72 | 00:42:30 | 49272 | 52451
7 | 11:39:27 | 04:46:74 | 52452 | 73975
8 | 16:26:26 | 02:11:68 | 73976 | 83868
9 | 18:38:19 | 02:01:71 | 83869 | 93014
10 | 20:40:15 | 01:53:44 | 93015 | 101533
11 | 22:33:59 | 01:06:15 | 101534 | 106498
12 | 23:39:74 | 04:00:36 | 106499 | 124534
13 | 27:40:35 | 00:33:14 | 124535 | 127023
14 | 28:13:49 | 00:44:08 | 127024 | 130331
15 | 28:57:57 | 01:27:49 | 130332 | 136905
16 | 30:25:31 | 01:48:64 | 136906 | 145069
17 | 32:14:20 | 01:35:46 | 145070 | 152240
18 | 33:49:66 | 02:22:01 | 152241 | 162891
19 | 36:11:67 | 02:22:05 | 162892 | 173546
20 | 38:33:72 | 01:22:41 | 173547 | 179737
21 | 39:56:38 | 03:18:00 | 179738 | 194587
22 | 43:14:38 | 05:17:44 | 194588 | 218406
23 | 48:32:07 | 01:24:50 | 218407 | 224756
24 | 49:56:57 | 01:32:27 | 224757 | 231683
25 | 51:29:09 | 01:26:03 | 231684 | 238136
26 | 52:55:12 | 01:31:43 | 238137 | 245004
27 | 54:26:55 | 05:54:53 | 245005 | 271607
28 | 60:21:33 | 00:39:32 | 271608 | 274564
29 | 61:00:65 | 00:38:39 | 274565 | 277453
30 | 61:39:29 | 00:41:06 | 277454 | 280534
31 | 62:20:35 | 00:45:61 | 280535 | 283970
32 | 63:06:21 | 00:14:07 | 283971 | 285027
33 | 63:20:28 | 02:14:28 | 285028 | 295105

AccurateRip Summary
Disc not found in AccurateRip DB.

All Tracks
Statistics
Read error : 0
Skipped (treated as error) : 0
Edge jitter error (maybe fixed) : 0
Atom jitter error (maybe fixed) : 11
Drift error (maybe fixed) : 0
Dropped bytes error (maybe fixed) : 0
Duplicated bytes error (maybe fixed) : 0

Track 01
Filename : /Users/kgpat/Desktop/Convert/BatmanTMOTBatwomanFLAC/01 Lolita Ritmanis - Main Title.flac
Pre-gap length : 00:02:00

CRC32 hash : 7E8AB86E
CRC32 hash (skip zero) : 57ED2BB8
AccurateRip v1 signature : CA19E5A7
AccurateRip v2 signature : AC22A64F
->Track not present in AccurateRip database.
Statistics
Read error : 0
Skipped (treated as error) : 0
Edge jitter error (maybe fixed) : 0
Atom jitter error (maybe fixed) : 0
Drift error (maybe fixed) : 0
Dropped bytes error (maybe fixed) : 0
Duplicated bytes error (maybe fixed) : 0

Track 02
Filename : /Users/kgpat/Desktop/Convert/BatmanTMOTBatwomanFLAC/02 Lolita Ritmanis - Opening.flac
Pre-gap length : 00:02:00

CRC32 hash : 4E84086D
CRC32 hash (skip zero) : F6EC0ECA
AccurateRip v1 signature : 3704CD8D
AccurateRip v2 signature : D1060253
->Track not present in AccurateRip database.
Statistics
Read error : 0
Skipped (treated as error) : 0
Edge jitter error (maybe fixed) : 0
Atom jitter error (maybe fixed) : 0
Drift error (maybe fixed) : 0
Dropped bytes error (maybe fixed) : 0
Duplicated bytes error (maybe fixed) : 0

Track 03
Filename : /Users/kgpat/Desktop/Convert/BatmanTMOTBatwomanFLAC/03 Lolita Ritmanis - He's Been Waiting / Weapons Factory.flac
Pre-gap length : 00:02:00

CRC32 hash : ACA2E1D0
CRC32 hash (skip zero) : 98123D7F
AccurateRip v1 signature : 0BE8A879
AccurateRip v2 signature : 24D94C41
->Track not present in AccurateRip database.
Statistics
Read error : 0
Skipped (treated as error) : 0
Edge jitter error (maybe fixed) : 0
Atom jitter error (maybe fixed) : 0
Drift error (maybe fixed) : 0
Dropped bytes error (maybe fixed) : 0
Duplicated bytes error (maybe fixed) : 0

Track 04
Filename : /Users/kgpat/Desktop/Convert/BatmanTMOTBatwomanFLAC/04 Lolita Ritmanis - Start Flexing.flac
Pre-gap length : 00:02:00

CRC32 hash : BCA0E072
CRC32 hash (skip zero) : EBCB3F2F
AccurateRip v1 signature : 038457C4
AccurateRip v2 signature : 21D00AA7
->Track not present in AccurateRip database.
Statistics
Read error : 0
Skipped (treated as error) : 0
Edge jitter error (maybe fixed) : 0
Atom jitter error (maybe fixed) : 0
Drift error (maybe fixed) : 0
Dropped bytes error (maybe fixed) : 0
Duplicated bytes error (maybe fixed) : 0

Track 05
Filename : /Users/kgpat/Desktop/Convert/BatmanTMOTBatwomanFLAC/05 Lolita Ritmanis - The Reason I Called / Rocky Ballantine.flac
Pre-gap length : 00:02:00

CRC32 hash : F44CCA73
CRC32 hash (skip zero) : 4D3906DF
AccurateRip v1 signature : 00B827AF
AccurateRip v2 signature : 67B46708
->Track not present in AccurateRip database.
Statistics
Read error : 0
Skipped (treated as error) : 0
Edge jitter error (maybe fixed) : 0
Atom jitter error (maybe fixed) : 0
Drift error (maybe fixed) : 0
Dropped bytes error (maybe fixed) : 0
Duplicated bytes error (maybe fixed) : 0

Track 06
Filename : /Users/kgpat/Desktop/Convert/BatmanTMOTBatwomanFLAC/06 Lolita Ritmanis - Bat-Signal.flac
Pre-gap length : 00:02:00

CRC32 hash : E5379324
CRC32 hash (skip zero) : 006EEB2A
AccurateRip v1 signature : 84A56183
AccurateRip v2 signature : 5A182443
->Track not present in AccurateRip database.
Statistics
Read error : 0
Skipped (treated as error) : 0
Edge jitter error (maybe fixed) : 0
Atom jitter error (maybe fixed) : 0
Drift error (maybe fixed) : 0
Dropped bytes error (maybe fixed) : 0
Duplicated bytes error (maybe fixed) : 0

Track 07
Filename : /Users/kgpat/Desktop/Convert/BatmanTMOTBatwomanFLAC/07 Lolita Ritmanis - I'll Get Back to You / Factory / After the Explosion.flac
Pre-gap length : 00:02:00

CRC32 hash : 0C84AED8
CRC32 hash (skip zero) : E52AA4D4
AccurateRip v1 signature : FCB32476
AccurateRip v2 signature : 22F836D3
->Track not present in AccurateRip database.
Statistics
Read error : 0
Skipped (treated as error) : 0
Edge jitter error (maybe fixed) : 0
Atom jitter error (maybe fixed) : 0
Drift error (maybe fixed) : 0
Dropped bytes error (maybe fixed) : 0
Duplicated bytes error (maybe fixed) : 0

Track 08
Filename : /Users/kgpat/Desktop/Convert/BatmanTMOTBatwomanFLAC/08 Lolita Ritmanis - Chase Through Store / Rear View Mirror.flac
Pre-gap length : 00:02:00

CRC32 hash : 42AE0E24
CRC32 hash (skip zero) : FA7ADFB3
AccurateRip v1 signature : 93B2F855
AccurateRip v2 signature : 5D744C36
->Track not present in AccurateRip database.
Statistics
Read error : 0
Skipped (treated as error) : 0
Edge jitter error (maybe fixed) : 0
Atom jitter error (maybe fixed) : 5
Drift error (maybe fixed) : 0
Dropped bytes error (maybe fixed) : 0
Duplicated bytes error (maybe fixed) : 0

Track 09
Filename : /Users/kgpat/Desktop/Convert/BatmanTMOTBatwomanFLAC/09 Lolita Ritmanis - Bruce and Kathy.flac
Pre-gap length : 00:02:00

CRC32 hash : 667E3931
CRC32 hash (skip zero) : 23B1F176
AccurateRip v1 signature : A28B10D7
AccurateRip v2 signature : 0A7A0CBD
->Track not present in AccurateRip database.
Statistics
Read error : 0
Skipped (treated as error) : 0
Edge jitter error (maybe fixed) : 0
Atom jitter error (maybe fixed) : 0
Drift error (maybe fixed) : 0
Dropped bytes error (maybe fixed) : 0
Duplicated bytes error (maybe fixed) : 0

Track 10
Filename : /Users/kgpat/Desktop/Convert/BatmanTMOTBatwomanFLAC/10 Lolita Ritmanis - Real Muscle / Get Out!.flac
Pre-gap length : 00:02:00

CRC32 hash : EF4BE234
CRC32 hash (skip zero) : DF0BB684
AccurateRip v1 signature : F5B52B8E
AccurateRip v2 signature : 66DBD602
->Track not present in AccurateRip database.
Statistics
Read error : 0
Skipped (treated as error) : 0
Edge jitter error (maybe fixed) : 0
Atom jitter error (maybe fixed) : 0
Drift error (maybe fixed) : 0
Dropped bytes error (maybe fixed) : 0
Duplicated bytes error (maybe fixed) : 0

Track 11
Filename : /Users/kgpat/Desktop/Convert/BatmanTMOTBatwomanFLAC/11 Lolita Ritmanis - Paint the Town.flac
Pre-gap length : 00:02:00

CRC32 hash : 58B6E6C9
CRC32 hash (skip zero) : 050594E9
AccurateRip v1 signature : D429C782
AccurateRip v2 signature : 4358DE77
->Track not present in AccurateRip database.
Statistics
Read error : 0
Skipped (treated as error) : 0
Edge jitter error (maybe fixed) : 0
Atom jitter error (maybe fixed) : 0
Drift error (maybe fixed) : 0
Dropped bytes error (maybe fixed) : 0
Duplicated bytes error (maybe fixed) : 0

Track 12
Filename : /Users/kgpat/Desktop/Convert/BatmanTMOTBatwomanFLAC/12 Lolita Ritmanis - Revolving Door / Time to Burn a Bat.flac
Pre-gap length : 00:02:00

CRC32 hash : D033B317
CRC32 hash (skip zero) : 9A24669E
AccurateRip v1 signature : 0A85DEE5
AccurateRip v2 signature : 7587308C
->Track not present in AccurateRip database.
Statistics
Read error : 0
Skipped (treated as error) : 0
Edge jitter error (maybe fixed) : 0
Atom jitter error (maybe fixed) : 0
Drift error (maybe fixed) : 0
Dropped bytes error (maybe fixed) : 0
Duplicated bytes error (maybe fixed) : 0

Track 13
Filename : /Users/kgpat/Desktop/Convert/BatmanTMOTBatwomanFLAC/13 Lolita Ritmanis - I Was Wrong About You.flac
Pre-gap length : 00:02:00

CRC32 hash : F46C7B43
CRC32 hash (skip zero) : 26A64E4B
AccurateRip v1 signature : 7FED74D3
AccurateRip v2 signature : 17CBC7FD
->Track not present in AccurateRip database.
Statistics
Read error : 0
Skipped (treated as error) : 0
Edge jitter error (maybe fixed) : 0
Atom jitter error (maybe fixed) : 0
Drift error (maybe fixed) : 0
Dropped bytes error (maybe fixed) : 0
Duplicated bytes error (maybe fixed) : 0

Track 14
Filename : /Users/kgpat/Desktop/Convert/BatmanTMOTBatwomanFLAC/14 Lolita Ritmanis - Subway / Identified.flac
Pre-gap length : 00:02:00

CRC32 hash : 342AB80D
CRC32 hash (skip zero) : 3F98705F
AccurateRip v1 signature : 89AE1074
AccurateRip v2 signature : FA7A428C
->Track not present in AccurateRip database.
Statistics
Read error : 0
Skipped (treated as error) : 0
Edge jitter error (maybe fixed) : 0
Atom jitter error (maybe fixed) : 0
Drift error (maybe fixed) : 0
Dropped bytes error (maybe fixed) : 0
Duplicated bytes error (maybe fixed) : 0

Track 15
Filename : /Users/kgpat/Desktop/Convert/BatmanTMOTBatwomanFLAC/15 Lolita Ritmanis - I Don't Want to See You / High Stakes.flac
Pre-gap length : 00:02:00

CRC32 hash : A1978039
CRC32 hash (skip zero) : 7220A61B
AccurateRip v1 signature : 2E2ED3FE
AccurateRip v2 signature : 78A05DF6
->Track not present in AccurateRip database.
Statistics
Read error : 0
Skipped (treated as error) : 0
Edge jitter error (maybe fixed) : 0
Atom jitter error (maybe fixed) : 0
Drift error (maybe fixed) : 0
Dropped bytes error (maybe fixed) : 0
Duplicated bytes error (maybe fixed) : 0

Track 16
Filename : /Users/kgpat/Desktop/Convert/BatmanTMOTBatwomanFLAC/16 Lolita Ritmanis - The Ship Sails Tonight / Batwoman in Flight.flac
Pre-gap length : 00:02:00

CRC32 hash : 6D63015C
CRC32 hash (skip zero) : 9E5E59CE
AccurateRip v1 signature : E14E3561
AccurateRip v2 signature : E11C0595
->Track not present in AccurateRip database.
Statistics
Read error : 0
Skipped (treated as error) : 0
Edge jitter error (maybe fixed) : 0
Atom jitter error (maybe fixed) : 0
Drift error (maybe fixed) : 0
Dropped bytes error (maybe fixed) : 0
Duplicated bytes error (maybe fixed) : 0

Track 17
Filename : /Users/kgpat/Desktop/Convert/BatmanTMOTBatwomanFLAC/17 Lolita Ritmanis - Close to Our Goal.flac
Pre-gap length : 00:02:00

CRC32 hash : 9EC715DE
CRC32 hash (skip zero) : 01CED575
AccurateRip v1 signature : 45D81AEB
AccurateRip v2 signature : 54F2A669
->Track not present in AccurateRip database.
Statistics
Read error : 0
Skipped (treated as error) : 0
Edge jitter error (maybe fixed) : 0
Atom jitter error (maybe fixed) : 0
Drift error (maybe fixed) : 0
Dropped bytes error (maybe fixed) : 0
Duplicated bytes error (maybe fixed) : 0

Track 18
Filename : /Users/kgpat/Desktop/Convert/BatmanTMOTBatwomanFLAC/18 Lolita Ritmanis - This Is It / Ship Leaves the Harbor.flac
Pre-gap length : 00:02:00

CRC32 hash : 7577AD56
CRC32 hash (skip zero) : 26DC3988
AccurateRip v1 signature : CDD0DF75
AccurateRip v2 signature : 73AD1E16
->Track not present in AccurateRip database.
Statistics
Read error : 0
Skipped (treated as error) : 0
Edge jitter error (maybe fixed) : 0
Atom jitter error (maybe fixed) : 0
Drift error (maybe fixed) : 0
Dropped bytes error (maybe fixed) : 0
Duplicated bytes error (maybe fixed) : 0

Track 19
Filename : /Users/kgpat/Desktop/Convert/BatmanTMOTBatwomanFLAC/19 Lolita Ritmanis - Penguin Gets a Call / Trouble.flac
Pre-gap length : 00:02:00

CRC32 hash : AA855D3B
CRC32 hash (skip zero) : 58349014
AccurateRip v1 signature : 62D3724B
AccurateRip v2 signature : A6145229
->Track not present in AccurateRip database.
Statistics
Read error : 0
Skipped (treated as error) : 0
Edge jitter error (maybe fixed) : 0
Atom jitter error (maybe fixed) : 0
Drift error (maybe fixed) : 0
Dropped bytes error (maybe fixed) : 0
Duplicated bytes error (maybe fixed) : 0

Track 20
Filename : /Users/kgpat/Desktop/Convert/BatmanTMOTBatwomanFLAC/20 Lolita Ritmanis - Bon Voyage, Senior Batman.flac
Pre-gap length : 00:02:00

CRC32 hash : 1AEAF6D2
CRC32 hash (skip zero) : 9C4BD99D
AccurateRip v1 signature : 79D9D88D
AccurateRip v2 signature : B8E11783
->Track not present in AccurateRip database.
Statistics
Read error : 0
Skipped (treated as error) : 0
Edge jitter error (maybe fixed) : 0
Atom jitter error (maybe fixed) : 0
Drift error (maybe fixed) : 0
Dropped bytes error (maybe fixed) : 0
Duplicated bytes error (maybe fixed) : 0

Track 21
Filename : /Users/kgpat/Desktop/Convert/BatmanTMOTBatwomanFLAC/21 Lolita Ritmanis - Close Look / It Has to End / Explosions.flac
Pre-gap length : 00:02:00

CRC32 hash : EC391B36
CRC32 hash (skip zero) : 4F15A452
AccurateRip v1 signature : 5883C48D
AccurateRip v2 signature : 81C6AF2C
->Track not present in AccurateRip database.
Statistics
Read error : 0
Skipped (treated as error) : 0
Edge jitter error (maybe fixed) : 0
Atom jitter error (maybe fixed) : 0
Drift error (maybe fixed) : 0
Dropped bytes error (maybe fixed) : 0
Duplicated bytes error (maybe fixed) : 0

Track 22
Filename : /Users/kgpat/Desktop/Convert/BatmanTMOTBatwomanFLAC/22 Lolita Ritmanis - Ship Is Going Down.flac
Pre-gap length : 00:02:00

CRC32 hash : 8CF5BF34
CRC32 hash (skip zero) : D074F537
AccurateRip v1 signature : 9112B2E7
AccurateRip v2 signature : 1CAB8E59
->Track not present in AccurateRip database.
Statistics
Read error : 0
Skipped (treated as error) : 0
Edge jitter error (maybe fixed) : 0
Atom jitter error (maybe fixed) : 5
Drift error (maybe fixed) : 0
Dropped bytes error (maybe fixed) : 0
Duplicated bytes error (maybe fixed) : 0

Track 23
Filename : /Users/kgpat/Desktop/Convert/BatmanTMOTBatwomanFLAC/23 Lolita Ritmanis - Bane's Demise.flac
Pre-gap length : 00:02:00

CRC32 hash : 2439E00A
CRC32 hash (skip zero) : C4F7D345
AccurateRip v1 signature : 29DFFB6C
AccurateRip v2 signature : CEB4CECE
->Track not present in AccurateRip database.
Statistics
Read error : 0
Skipped (treated as error) : 0
Edge jitter error (maybe fixed) : 0
Atom jitter error (maybe fixed) : 0
Drift error (maybe fixed) : 0
Dropped bytes error (maybe fixed) : 0
Duplicated bytes error (maybe fixed) : 0

Track 24
Filename : /Users/kgpat/Desktop/Convert/BatmanTMOTBatwomanFLAC/24 Lolita Ritmanis - Bullock Sees Sonia / The Badge.flac
Pre-gap length : 00:02:00

CRC32 hash : 0F984AD6
CRC32 hash (skip zero) : 9A2994D5
AccurateRip v1 signature : 15BFBEE7
AccurateRip v2 signature : 9BC64E83
->Track not present in AccurateRip database.
Statistics
Read error : 0
Skipped (treated as error) : 0
Edge jitter error (maybe fixed) : 0
Atom jitter error (maybe fixed) : 0
Drift error (maybe fixed) : 0
Dropped bytes error (maybe fixed) : 0
Duplicated bytes error (maybe fixed) : 0

Track 25
Filename : /Users/kgpat/Desktop/Convert/BatmanTMOTBatwomanFLAC/25 Lolita Ritmanis - I Missed You.flac
Pre-gap length : 00:02:00

CRC32 hash : E65AAC7E
CRC32 hash (skip zero) : 1B98CB8E
AccurateRip v1 signature : EBD6B4E3
AccurateRip v2 signature : FDDD1DB6
->Track not present in AccurateRip database.
Statistics
Read error : 0
Skipped (treated as error) : 0
Edge jitter error (maybe fixed) : 0
Atom jitter error (maybe fixed) : 0
Drift error (maybe fixed) : 0
Dropped bytes error (maybe fixed) : 0
Duplicated bytes error (maybe fixed) : 0

Track 26
Filename : /Users/kgpat/Desktop/Convert/BatmanTMOTBatwomanFLAC/26 Lolita Ritmanis - Mystery End Credits.flac
Pre-gap length : 00:02:00

CRC32 hash : 75F244CF
CRC32 hash (skip zero) : C08978AB
AccurateRip v1 signature : D7868344
AccurateRip v2 signature : 35EF49D6
->Track not present in AccurateRip database.
Statistics
Read error : 0
Skipped (treated as error) : 0
Edge jitter error (maybe fixed) : 0
Atom jitter error (maybe fixed) : 0
Drift error (maybe fixed) : 0
Dropped bytes error (maybe fixed) : 0
Duplicated bytes error (maybe fixed) : 0

Track 27
Filename : /Users/kgpat/Desktop/Convert/BatmanTMOTBatwomanFLAC/27 Lolita Ritmanis - CHASE ME - Chase Me.flac
Pre-gap length : 00:06:00

CRC32 hash : 4FB797F9
CRC32 hash (skip zero) : 6C0DAA3D
AccurateRip v1 signature : B92CD5DE
AccurateRip v2 signature : 1E8E7098
->Track not present in AccurateRip database.
Statistics
Read error : 0
Skipped (treated as error) : 0
Edge jitter error (maybe fixed) : 0
Atom jitter error (maybe fixed) : 1
Drift error (maybe fixed) : 0
Dropped bytes error (maybe fixed) : 0
Duplicated bytes error (maybe fixed) : 0

Track 28
Filename : /Users/kgpat/Desktop/Convert/BatmanTMOTBatwomanFLAC/28 Lolita Ritmanis - CHASE ME - Chase Me End Credits.flac
Pre-gap length : 00:02:00

CRC32 hash : 0EBE12BE
CRC32 hash (skip zero) : 2EE23D86
AccurateRip v1 signature : 1B27FD2D
AccurateRip v2 signature : B08A5F58
->Track not present in AccurateRip database.
Statistics
Read error : 0
Skipped (treated as error) : 0
Edge jitter error (maybe fixed) : 0
Atom jitter error (maybe fixed) : 0
Drift error (maybe fixed) : 0
Dropped bytes error (maybe fixed) : 0
Duplicated bytes error (maybe fixed) : 0

Track 29
Filename : /Users/kgpat/Desktop/Convert/BatmanTMOTBatwomanFLAC/29 Lolita Ritmanis - News Source - Bonus Track.flac
Pre-gap length : 00:06:00

CRC32 hash : B94265F2
CRC32 hash (skip zero) : 68767E61
AccurateRip v1 signature : 09E90C8C
AccurateRip v2 signature : ABD5E5E1
->Track not present in AccurateRip database.
Statistics
Read error : 0
Skipped (treated as error) : 0
Edge jitter error (maybe fixed) : 0
Atom jitter error (maybe fixed) : 0
Drift error (maybe fixed) : 0
Dropped bytes error (maybe fixed) : 0
Duplicated bytes error (maybe fixed) : 0

Track 30
Filename : /Users/kgpat/Desktop/Convert/BatmanTMOTBatwomanFLAC/30 Lolita Ritmanis - Piano Source- Bonus Track.flac
Pre-gap length : 00:02:00

CRC32 hash : A3351A50
CRC32 hash (skip zero) : C2B3A6F4
AccurateRip v1 signature : 61A8D638
AccurateRip v2 signature : E0E5105F
->Track not present in AccurateRip database.
Statistics
Read error : 0
Skipped (treated as error) : 0
Edge jitter error (maybe fixed) : 0
Atom jitter error (maybe fixed) : 0
Drift error (maybe fixed) : 0
Dropped bytes error (maybe fixed) : 0
Duplicated bytes error (maybe fixed) : 0

Track 31
Filename : /Users/kgpat/Desktop/Convert/BatmanTMOTBatwomanFLAC/31 Lolita Ritmanis - Department Store- Bonus Track.flac
Pre-gap length : 00:02:00

CRC32 hash : 8FF66283
CRC32 hash (skip zero) : 0A804532
AccurateRip v1 signature : AE093534
AccurateRip v2 signature : F46035D3
->Track not present in AccurateRip database.
Statistics
Read error : 0
Skipped (treated as error) : 0
Edge jitter error (maybe fixed) : 0
Atom jitter error (maybe fixed) : 0
Drift error (maybe fixed) : 0
Dropped bytes error (maybe fixed) : 0
Duplicated bytes error (maybe fixed) : 0

Track 32
Filename : /Users/kgpat/Desktop/Convert/BatmanTMOTBatwomanFLAC/32 Lolita Ritmanis - Rude Interruption- Bonus Track.flac
Pre-gap length : 00:02:00

CRC32 hash : B7B86E76
CRC32 hash (skip zero) : 0D0E2AF0
AccurateRip v1 signature : 7CA3F560
AccurateRip v2 signature : 36F50288
->Track not present in AccurateRip database.
Statistics
Read error : 0
Skipped (treated as error) : 0
Edge jitter error (maybe fixed) : 0
Atom jitter error (maybe fixed) : 0
Drift error (maybe fixed) : 0
Dropped bytes error (maybe fixed) : 0
Duplicated bytes error (maybe fixed) : 0

Track 33
Filename : /Users/kgpat/Desktop/Convert/BatmanTMOTBatwomanFLAC/33 Lolita Ritmanis - Main Title (film version)- Bonus Track.flac
Pre-gap length : 00:02:00

CRC32 hash : 5CB90F9A
CRC32 hash (skip zero) : 54B1D5FE
AccurateRip v1 signature : 086FB348
AccurateRip v2 signature : 84582D47
->Track not present in AccurateRip database.
Statistics
Read error : 0
Skipped (treated as error) : 0
Edge jitter error (maybe fixed) : 0
Atom jitter error (maybe fixed) : 0
Drift error (maybe fixed) : 0
Dropped bytes error (maybe fixed) : 0
Duplicated bytes error (maybe fixed) : 0

No errors occurred

End of status report
TITLE "Batman - Mystery Of The Batwoman (LLLCD 1369)"
PERFORMER "Lolita Ritmanis"
REM GENRE "Soundtrack"
REM DATE "2016"
REM DISCID F80F5E21
FILE "01 - Main Title.wav" WAVE
TRACK 01 AUDIO
TITLE "Main Title"
FLAGS DCP
INDEX 01 00:00:00
TRACK 02 AUDIO
TITLE "Opening"
FLAGS DCP
INDEX 00 02:03:53
FILE "02 - Opening.wav" WAVE
INDEX 01 00:00:00
TRACK 03 AUDIO
TITLE "He's Been Waiting / Weapons Factory"
FLAGS DCP
INDEX 00 04:24:08
FILE "03 - He's Been Waiting - Weapons Factory.wav" WAVE
INDEX 01 00:00:00
TRACK 04 AUDIO
TITLE "Start Flexing"
FLAGS DCP
INDEX 00 01:11:03
FILE "04 - Start Flexing.wav" WAVE
INDEX 01 00:00:00
TRACK 05 AUDIO
TITLE "The Reason I Called / Rocky Ballantine"
FLAGS DCP
INDEX 00 01:17:25
FILE "05 - The Reason I Called - Rocky Ballantine.wav" WAVE
INDEX 01 00:00:00
TRACK 06 AUDIO
TITLE "Bat-Signal"
FLAGS DCP
INDEX 00 01:50:58
FILE "06 - Bat-Signal.wav" WAVE
INDEX 01 00:00:00
TRACK 07 AUDIO
TITLE "I'll Get Back to You / Factory / After the Explosion"
FLAGS DCP
INDEX 00 00:40:30
FILE "07 - I'll Get Back to You - Factory - After the Explosion.wav" WAVE
INDEX 01 00:00:00
TRACK 08 AUDIO
TITLE "Chase Through Store / Rear View Mirror"
FLAGS DCP
INDEX 00 04:44:74
FILE "08 - Chase Through Store - Rear View Mirror.wav" WAVE
INDEX 01 00:00:00
TRACK 09 AUDIO
TITLE "Bruce and Kathy"
FLAGS DCP
INDEX 00 02:09:68
FILE "09 - Bruce and Kathy.wav" WAVE
INDEX 01 00:00:00
TRACK 10 AUDIO
TITLE "Real Muscle / Get Out!"
FLAGS DCP
INDEX 00 01:59:71
FILE "10 - Real Muscle - Get Out!.wav" WAVE
INDEX 01 00:00:00
TRACK 11 AUDIO
TITLE "Paint the Town"
FLAGS DCP
INDEX 00 01:51:44
FILE "11 - Paint the Town.wav" WAVE
INDEX 01 00:00:00
TRACK 12 AUDIO
TITLE "Revolving Door / Time to Burn a Bat"
FLAGS DCP
INDEX 00 01:04:15
FILE "12 - Revolving Door - Time to Burn a Bat.wav" WAVE
INDEX 01 00:00:00
TRACK 13 AUDIO
TITLE "I Was Wrong About You"
FLAGS DCP
INDEX 00 03:58:36
FILE "13 - I Was Wrong About You.wav" WAVE
INDEX 01 00:00:00
TRACK 14 AUDIO
TITLE "Subway / Identified"
FLAGS DCP
INDEX 00 00:31:14
FILE "14 - Subway - Identified.wav" WAVE
INDEX 01 00:00:00
TRACK 15 AUDIO
TITLE "I Don't Want to See You / High Stakes"
FLAGS DCP
INDEX 00 00:42:08
FILE "15 - I Don't Want to See You - High Stakes.wav" WAVE
INDEX 01 00:00:00
TRACK 16 AUDIO
TITLE "The Ship Sails Tonight / Batwoman in Flight"
FLAGS DCP
INDEX 00 01:25:49
FILE "16 - The Ship Sails Tonight - Batwoman in Flight.wav" WAVE
INDEX 01 00:00:00
TRACK 17 AUDIO
TITLE "Close to Our Goal"
FLAGS DCP
INDEX 00 01:46:64
FILE "17 - Close to Our Goal.wav" WAVE
INDEX 01 00:00:00
TRACK 18 AUDIO
TITLE "This Is It / Ship Leaves the Harbor"
FLAGS DCP
INDEX 00 01:33:46
FILE "18 - This Is It - Ship Leaves the Harbor.wav" WAVE
INDEX 01 00:00:00
TRACK 19 AUDIO
TITLE "Penguin Gets a Call / Trouble"
FLAGS DCP
INDEX 00 02:20:01
FILE "19 - Penguin Gets a Call - Trouble.wav" WAVE
INDEX 01 00:00:00
TRACK 20 AUDIO
TITLE "Bon Voyage, Senior Batman"
FLAGS DCP
INDEX 00 02:20:05
FILE "20 - Bon Voyage, Senior Batman.wav" WAVE
INDEX 01 00:00:00
TRACK 21 AUDIO
TITLE "Close Look / It Has to End / Explosions"
FLAGS DCP
INDEX 00 01:20:41
FILE "21 - Close Look - It Has to End - Explosions.wav" WAVE
INDEX 01 00:00:00
TRACK 22 AUDIO
TITLE "Ship Is Going Down"
FLAGS DCP
INDEX 00 03:16:00
FILE "22 - Ship Is Going Down.wav" WAVE
INDEX 01 00:00:00
TRACK 23 AUDIO
TITLE "Bane's Demise"
FLAGS DCP
INDEX 00 05:15:44
FILE "23 - Bane's Demise.wav" WAVE
INDEX 01 00:00:00
TRACK 24 AUDIO
TITLE "Bullock Sees Sonia / The Badge"
FLAGS DCP
INDEX 00 01:22:50
FILE "24 - Bullock Sees Sonia - The Badge.wav" WAVE
INDEX 01 00:00:00
TRACK 25 AUDIO
TITLE "I Missed You"
FLAGS DCP
INDEX 00 01:30:27
FILE "25 - I Missed You.wav" WAVE
INDEX 01 00:00:00
TRACK 26 AUDIO
TITLE "Mystery End Credits"
FLAGS DCP
INDEX 00 01:24:03
FILE "26 - Mystery End Credits.wav" WAVE
INDEX 01 00:00:00
TRACK 27 AUDIO
TITLE "Chase Me"
FLAGS DCP
INDEX 00 01:25:43
FILE "27 - Chase Me.wav" WAVE
INDEX 01 00:00:00
TRACK 28 AUDIO
TITLE "Chase Me End Credits"
FLAGS DCP
INDEX 00 05:52:53
FILE "28 - Chase Me End Credits.wav" WAVE
INDEX 01 00:00:00
TRACK 29 AUDIO
TITLE "News Source [Bonus Track]"
FLAGS DCP
INDEX 00 00:33:32
FILE "29 - News Source [Bonus Track].wav" WAVE
INDEX 01 00:00:00
TRACK 30 AUDIO
TITLE "Piano Source [Bonus Track]"
FLAGS DCP
INDEX 00 00:36:39
FILE "30 - Piano Source [Bonus Track].wav" WAVE
INDEX 01 00:00:00
TRACK 31 AUDIO
TITLE "Department Store [Bonus Track]"
FLAGS DCP
INDEX 00 00:39:06
FILE "31 - Department Store [Bonus Track].wav" WAVE
INDEX 01 00:00:00
TRACK 32 AUDIO
TITLE "Rude Interruption [Bonus Track]"
FLAGS DCP
INDEX 00 00:43:61
FILE "32 - Rude Interruption [Bonus Track].wav" WAVE
INDEX 01 00:00:00
TRACK 33 AUDIO
TITLE "Main Title (film version) [Bonus Track]"
FLAGS DCP
INDEX 00 00:12:07
FILE "33 - Main Title (film version) [Bonus Track].wav" WAVE
INDEX 01 00:00:00
picpicpic
Для увеличения картинки щелкните мышкой по превью

Этот торрент недоступен для скачивания без регистрации, однако доступен по публичной magnet-ссылке (источники с публичных трекеров). Перед использованием ссылки прочтите, пожалуйста Пользовательское соглашение, а также как можно дольше оставайтесь на раздаче! Для того, чтобы скачать сам торрент-файл (который видит больше источников), а также для того, чтобы поблагодарить релизера, вам необходимо зарегистрироваться. Если регистрироваться лень - вы можете также попробовать скачать релиз по нашим партнерским ссылкам ниже. Кроме того, зарегистрированным пользователям не показывается всплывающая реклама при скачивании.

[underverse.su].t68425.torrent
Трекер: Зарегистрирован   [ 25.07.2016 10:29 ]  

Статус: проверено (by garry at 25.07.2016 10:35)
Поблагодарили: пока никто не поблагодарил...
Тип торрента: публичный - доступные источники с открытых трекеров: 
Размер: 395 MB (занимает 0,09 DVDR, для записи нужно 1 болванка DVDR/RW)
 
 
Похожие темы
Форум Тема Автор Торрент Отв. Посл. сооб.
OST & Score - Movie (Score) Бэтмен: Начало | Темный рыцарь | Возрождение легенды / Batman Begins | The Dark Knight | Rises (by Hans Zimmer and James Newton Howard) (2005-2012) [iTunes AAC M4A, 256 kbps VBR] Web garry
1 | 0

0 | 2353

0

13.07.2012 18:27

OST & Score - Movie (Score) Бэтмен: Отвага и смелость / Batman: The Brave and the Bold (by Kristopher Carter, Lolita Ritmanis and Michael McCuistion) (2014 (2008-2011)) [MP3, 320 kbps] garry
1 | 0

0 | 1656

1

13.02.2014 18:49

OST & Score - Movie (Score) Бэтмен против Супермена: На заре справедливости | Лига справедливости / Batman v Superman: Dawn of Justice [Deluxe Edition] | Justice League (by Hans Zimmer, Junkie XL, Danny Elfman)... garry
1 | 0

0 | 1415

0

18.03.2016 19:46

OST & Score Movie, TV Show & Series, Game (Lossless) (Score) Бэтмен: Под колпаком / Batman: Under the Red Hood (by Christopher Drake) (2010) [FLAC (Tracks+.CUE), lossless] garry
1 | 0

0 | 2272

0

18.11.2010 12:15

# OST & Score Movie, TV Show & Series, Game (Lossless) (Score) Бэтмен | возвращается | навсегда / Batman | Returns | Forever (by Danny Elfman, Elliot Goldenthal) (1989-2012 (1989-1995)) [FLAC (Tracks+.CUE), lossless] garry
2 | 1

0 | 2573

0

10.01.2012 02:18

# OST & Score Movie, TV Show & Series, Game (Lossless) (Score) Бэтмен / Batman: The Animated Series, Volume 1-4 (by Shirley Walker, Lolita Ritmanis and Michael McCuistion) (2008-2016 (1992-1993)) [FLAC (Tracks+.CUE), lossless] garry
2 | 3

0 | 3942

0

03.11.2012 19:18

OST & Score Movie, TV Show & Series, Game (Lossless) (Score) Бэтмен: Маска Фантазма / Batman: Mask of the Phantasm (by Shirley Walker) (1993-2009) [FLAC (Tracks+.CUE), lossless] garry
1 | 0

0 | 1483

0

11.10.2014 09:22

OST & Score Movie, TV Show & Series, Game (Lossless) (Score) Бэтмен: Нападение на Аркхэм / Batman: Assault on Arkham (by Robert J. Kral) (2014) [FLAC (Tracks+.CUE), lossless] garry
1 | 0

0 | 1289

1

20.10.2014 09:19

OST & Score Movie, TV Show & Series, Game (Lossless) (Score) Бэтмен будущего: Возвращение Джокера / Batman Beyond: Return of the Joker (by Kristopher Carter) (2000) [FLAC (Tracks+.CUE), lossless] garry
1 | 0

0 | 1206

1

08.05.2015 13:56

OST & Score Movie, TV Show & Series, Game (Lossless) (Score) Бэтмен будущего / Batman Beyond (by Kristopher Carter, Shirley Walker, Lolita Ritmanis, Michael McCuistion) (1999) [FLAC (Tracks+.CUE), lossless] garry
2 | 0

0 | 645

1

04.03.2017 13:04


Яндекс.Метрика powered by Sphinx


В Н И М А Н И Е
Сайт не распространяет и не хранит электронные версии произведений, а лишь бесплатно и без коммерческой выгоды (не требуя взамен платы,
SMS и т.д.) предоставляет доступ к создаваемому пользователями каталогу ссылок на торрент-файлы, которые содержат только списки хеш-сумм.
Убедительная просьба с жалобами обращаться напрямую к пользователю, разместившему торрент файл.

Вверх