Loading...
Error

Визави / Vis a vis (2 сезон: 1-13 серий из 13) (Хесус Кольменар, Хесус Родриго, Сандра Гальего) [2016 г., драма, HDTVRip 720p] MVO (SunshineStudio)

Статистика раздачи
Размер:  16,33 GB   |    Зарегистрирован:  2 года 1 месяц   |    Скачан:  2 раза

Полного источника не было: 1 месяц 6 дней

Сидов:  0  |  0 KB/s  ]   Личеров:  0  |  0 KB/s  ]

* - сиды/пиры с внешних источников

   
 
Автор Сообщение

ARI71 Пол:Муж

26-Сен-2016 20:02

Визави / Vis a vis (2 сезон: 1-13 серий из 13)


Год выпуска: 2016
Жанр: драма
Страна: Испания Globo Media S.A.
Режиссер: Хесус Кольменар, Хесус Родриго, Сандра Гальего
В ролях: Мэгги Сивантос, Роберто Энрикес, Кристина Пласас, Берта Васкес, Альба Флорес, Инма Куэвас, Мария Исабель Диас, Рамиро Блас, Альберто Веласко, Марта Аледо
Сюжет фильма:
В центре сюжета молодая, наивная девушка, которую подставили в преступлении. Теперь ей придется не просто сесть в тюрьму, а выжить, ведь каждый день пребывания там, может стать для неё последним...

Качество видео: HDTVRip 720p

Продолжительность: 13 х ~ 01:10:00
Формат: MKV
Видео: AVC (x264), 1280x720, ~2646 kbps
Аудио: русский, многоголосый закадровый [любительский, SunshineStudio], AC3 2.0, ~192.00 kbps
(тех. данные всех серий идентичны)

Доп. информация: премьера (мир) - 20 апреля 2015
Релиз содержит рекламные вставки

Код:

Общее
Уникальный идентификатор : 207982038378891960886242794786101091519 (0x9C77E2310B6729C6A7374C69E9F75CBF)
Полное имя : D:\Vis.a.vis.S02.720р.SunshineStudio\Vis.a.vis.S02.E01.720р.SunshineStudio.mkv
Формат : Matroska
Версия формата : Version 4 / Version 2
Размер файла : 1,54 Гбайт
Продолжительность : 1 ч. 17 м.
Общий поток : 2840 Кбит/сек
Дата кодирования : UTC 2016-08-29 17:21:57
Программа кодирования : mkvmerge v8.3.0 ('Over the Horizon') 64bit
Библиотека кодирования : libebml v1.3.1 + libmatroska v1.4.2

Видео
Идентификатор : 1
Формат : AVC
Формат/Информация : Advanced Video Codec
Профиль формата : High@L3.1
Параметр CABAC формата : Да
Параметр ReFrames формата : 4 кадра
Идентификатор кодека : V_MPEG4/ISO/AVC
Продолжительность : 1 ч. 17 м.
Битрейт : 2646 Кбит/сек
Ширина : 1280 пикселей
Высота : 720 пикселей
Соотношение сторон : 16:9
Режим частоты кадров : Постоянный
Частота кадров : 25,000 кадров/сек
Цветовое пространство : YUV
Субдискретизация насыщенности : 4:2:0
Битовая глубина : 8 бит
Тип развёртки : Прогрессивная
Бит/(Пиксели*Кадры) : 0.115
Размер потока : 1,44 Гбайт (93%)
Библиотека кодирования : x264 core 130 r2273 b3065e6
Настройки программы : cabac=1 / ref=1 / deblock=1:0:0 / analyse=0x3:0x113 / me=hex / subme=2 / psy=1 / psy_rd=1.00:0.10 / mixed_ref=0 / me_range=16 / chroma_me=1 / trellis=0 / 8x8dct=1 / cqm=0 / deadzone=21,11 / fast_pskip=1 / chroma_qp_offset=0 / threads=6 / lookahead_threads=2 / sliced_threads=0 / nr=0 / decimate=1 / interlaced=0 / bluray_compat=0 / constrained_intra=0 / bframes=3 / b_pyramid=2 / b_adapt=1 / b_bias=0 / direct=1 / weightb=1 / open_gop=0 / weightp=1 / keyint=250 / keyint_min=25 / scenecut=40 / intra_refresh=0 / rc_lookahead=10 / rc=crf / mbtree=1 / crf=17.0 / qcomp=0.60 / qpmin=0 / qpmax=69 / qpstep=4 / ip_ratio=1.40 / aq=1:1.00
Язык : English
Default : Да
Forced : Нет

Аудио
Идентификатор : 2
Формат : AC-3
Формат/Информация : Audio Coding 3
Расширение режима : CM (complete main)
Параметр Endianness формата : Big
Идентификатор кодека : A_AC3
Продолжительность : 1 ч. 17 м.
Вид битрейта : Постоянный
Битрейт : 192 Кбит/сек
Каналы : 2 канала
Расположение каналов : Front: L R
Частота : 48,0 КГц
Частота кадров : 31,250 кадров/сек (1536 spf)
Метод сжатия : С потерями
Размер потока : 107 Мбайт (7%)
Default : Да
Forced : Нет
Релиз группы:

picpicpicpicpic
Для увеличения картинки щелкните мышкой по превью

Этот торрент недоступен для скачивания без регистрации, однако доступен по публичной magnet-ссылке (источники с публичных трекеров). Перед использованием ссылки прочтите, пожалуйста Пользовательское соглашение, а также как можно дольше оставайтесь на раздаче! Для того, чтобы скачать сам торрент-файл (который видит больше источников), а также для того, чтобы поблагодарить релизера, вам необходимо зарегистрироваться. Если регистрироваться лень - вы можете также попробовать скачать релиз по нашим партнерским ссылкам ниже. Кроме того, зарегистрированным пользователям не показывается всплывающая реклама при скачивании.

[underverse.su].t74346.torrent
Трекер: Зарегистрирован   [ 24.11.2016 17:34 ]  

Статус: проверено (by Паукан at 26.11.2016 21:08)
Поблагодарили: пока никто не поблагодарил...
Тип торрента: публичный - доступные источники с открытых трекеров: 
Размер: 16,33 GB (занимает 3,73 DVDR, для записи нужно 4 болванки DVDR/RW)
 
 
Похожие темы
Форум Тема Автор Торрент Отв. Посл. сооб.
T Зарубежные сериалы Визави / Vis a vis (2 сезон: 1-13 серий из 13) (Хесус Кольменар, Хесус Родриго, Сандра Гальего) [2016 г., драма, HDTVRip] MVO (SunshineStudio) ARI71
3 | 1

2 | 1806

1

27.09.2016 17:04

Зарубежные сериалы Визави / Vis a vis (1 сезон: 1-11 серии из 11) / (Хесус Кольменар, Хесус Родриго, Сандра Гальего) [2015–2016 г., драма, HDTVRip] DVO (SunshineStudio) ARI71
0 | 2

0 | 1194

3

16.07.2016 13:11

Зарубежные сериалы [BD / Remux / BDRip / WEB-DL / HDTV 1080/720р] Визави / Vis a vis (1 сезон: 1-11 серии из 11) / (Хесус Кольменар, Хесус Родриго, Сандра Гальего) [2015–2016 г., драма, HDTVRip 720р] DVO (SunshineStudio) ARI71
3 | 1

1 | 1160

5

11.08.2016 09:54

T Архив (Сериалы) Визави / Vis a vis (2 сезон: 1-13 серий из 13) / (Хесус Кольменар, Хесус Родриго, Сандра Гальего) [2016 г., драма, HDTVRip] Original (Esp) + Sub (Rus) [Группа ВК "Мир испанских сериалов"] ARI71
0 | 0

3 | 1821

3

31.01.2018 16:59



Последний раз редактировалось: ARI71 (24.11.2016 17:33), всего редактировалось 8 раз(а)

ARI71 Пол:Муж

26-Сен-2016 20:10

Приятного всем просмотра!

Голосуй за трекер!!



ARI71 Пол:Муж

27-Сен-2016 16:55

Добавлена заключительная 13-я серия. Обновите торрент-файл!

    Обновление раздачи завершено!

Яндекс.Метрика powered by Sphinx


В Н И М А Н И Е
Сайт не распространяет и не хранит электронные версии произведений, а лишь бесплатно и без коммерческой выгоды (не требуя взамен платы,
SMS и т.д.) предоставляет доступ к создаваемому пользователями каталогу ссылок на торрент-файлы, которые содержат только списки хеш-сумм.
Убедительная просьба с жалобами обращаться напрямую к пользователю, разместившему торрент файл.

Вверх