Loading...
Error

Логово льва / De Leeuwenkuil / 1 сезон (1-10 серии из 10) (Диде ин'т Вельд) [2013 г., семейный, HDTVRip 1080p] MVO + Original

Статистика раздачи
Размер:  9,1 GB   |    Зарегистрирован:  2 года   |    Скачан:  2 раза

Полного источника не было: 7 дней

Сидов:  0  |  0 KB/s  ]   Личеров:  0  |  0 KB/s  ]

* - сиды/пиры с внешних источников

   
 
Автор Сообщение

makkol Пол:Муж

30-Окт-2016 10:17

Логово льва / De Leeuwenkuil / 1 сезон


Год выпуска: 2013
Жанр: семейный
Производство: Нидерланды [Johan Nijenhuis & Co]
Режиссер: Диде ин'т Вельд
В ролях: Рэдмар Зигерч, Коен Доббелаер, Лучиано Хиват, Юна де Льё, Тесс Зигерч, Лике Антонисен, Михаэль де Йонг, Херо Мюллер, Эд-Жаст Боуманн, Айко Беемстербоер
Сюжет фильма:
Как прекрасно должно быть жить в зоопарке? Не об этом ли мечтает каждый ребенок? Для Даниэля и Сюзины это реальность, так как директор зоопарка их отец. Давным-давно дедушка Даниэля и Сюзины построил деревянный дом в самом потаённом уголке зоопарка. Этот дом, называемый "Логовом льва", сейчас находится во владении Даниэля и Сюзины. Он является местом для игр и развлечений, а также местом, где Даниэль рисует свои комиксы про Человека-пеликана, обладающего безграничной силой и недюжинными возможностями, о которых мальчишка может только мечтать. Для наших маленьких героев зоопарк - это место, где приключения ожидают их на каждом шагу.

Качество видео: HDTVRip 1080p

Продолжительность: 10 x ~00:24:00
Формат: MKV
Видео: MPEG-4 AVC, 1920x1080 (16:9), 25.000 fps, 5000 kbps
Аудио #1: русский, профессиональный многоголосый закадровый, AC3 2.0, 48 kHz, 192 kbps
Аудио #2: голландский, оригинал, AC3 2.0, 48 kHz, 192 kbps

Код:

Формат                                   : Matroska
Версия формата                           : Version 4 / Version 2
Размер файла                             : 894 Мбайт
Продолжительность                        : 23 м.
Режим общего битрейта                    : Постоянный
Общий поток                              : 5383 Кбит/сек
Дата кодирования                         : UTC 2016-10-25 19:41:42
Программа кодирования                    : mkvmerge v7.9.0 ('Birds') 64bit
Библиотека кодирования                   : libebml v1.3.1 + libmatroska v1.4.2

Видео
Идентификатор                            : 1
Формат                                   : AVC
Формат/Информация                        : Advanced Video Codec
Профиль формата                          : High@L4.1
Параметр CABAC формата                   : Да
Параметр ReFrames формата                : 3 кадра
Идентификатор кодека                     : V_MPEG4/ISO/AVC
Продолжительность                        : 23 м.
Вид битрейта                             : Постоянный
Битрейт                                  : 5000 Кбит/сек
Ширина                                   : 1920 пикселей
Высота                                   : 1080 пикселей
Соотношение сторон                       : 16:9
Режим частоты кадров                     : Постоянный
Частота кадров                           : 25,000 кадров/сек
Стандарт вещания                         : PAL
Цветовое пространство                    : YUV
Субдискретизация насыщенности            : 4:2:0
Битовая глубина                          : 8 бит
Тип развёртки                            : Прогрессивная
Бит/(Пиксели*Кадры)                      : 0.096
Размер потока                            : 812 Мбайт (91%)
Default                                  : Да
Forced                                   : Нет
Цветовой диапазон                        : Limited
Основные цвета                           : BT.709
Характеристики трансфера                 : BT.709
Коэффициенты матрицы                     : BT.709

Аудио #1
Идентификатор                            : 2
Формат                                   : AC-3
Формат/Информация                        : Audio Coding 3
Расширение режима                        : CM (complete main)
Параметр Endianness формата              : Big
Идентификатор кодека                     : A_AC3
Продолжительность                        : 23 м.
Вид битрейта                             : Постоянный
Битрейт                                  : 192 Кбит/сек
Каналы                                   : 2 канала
Расположение каналов                     : Front: L R
Частота                                  : 48,0 КГц
Метод сжатия                             : С потерями
Размер потока                            : 31,9 Мбайт (4%)
Язык                                     : Russian
Default                                  : Да
Forced                                   : Нет

Аудио #2
Идентификатор                            : 3
Формат                                   : AC-3
Формат/Информация                        : Audio Coding 3
Расширение режима                        : CM (complete main)
Параметр Endianness формата              : Big
Идентификатор кодека                     : A_AC3
Продолжительность                        : 23 м.
Вид битрейта                             : Постоянный
Битрейт                                  : 192 Кбит/сек
Каналы                                   : 2 канала
Расположение каналов                     : Front: L R
Частота                                  : 48,0 КГц
Метод сжатия                             : С потерями
Размер потока                            : 31,9 Мбайт (4%)
Язык                                     : Dutch
Default                                  : Нет
Forced                                   : Нет
picpicpicpicpic
Для увеличения картинки щелкните мышкой по превью

Этот торрент недоступен для скачивания без регистрации, однако доступен по публичной magnet-ссылке (источники с публичных трекеров). Перед использованием ссылки прочтите, пожалуйста Пользовательское соглашение, а также как можно дольше оставайтесь на раздаче! Для того, чтобы скачать сам торрент-файл (который видит больше источников), а также для того, чтобы поблагодарить релизера, вам необходимо зарегистрироваться. Если регистрироваться лень - вы можете также попробовать скачать релиз по нашим партнерским ссылкам ниже. Кроме того, зарегистрированным пользователям не показывается всплывающая реклама при скачивании.

[underverse.su].t71690.torrent
Трекер: Зарегистрирован   [ 30.10.2016 10:17 ]  

Статус: проверено (by makkol at 30.10.2016 10:17)
Поблагодарили: пока никто не поблагодарил...
Тип торрента: публичный - доступные источники с открытых трекеров: 
Размер: 9,1 GB (занимает 2,08 DVDR, для записи нужно 3 болванки DVDR/RW)
 
 

Яндекс.Метрика powered by Sphinx


В Н И М А Н И Е
Сайт не распространяет и не хранит электронные версии произведений, а лишь бесплатно и без коммерческой выгоды (не требуя взамен платы,
SMS и т.д.) предоставляет доступ к создаваемому пользователями каталогу ссылок на торрент-файлы, которые содержат только списки хеш-сумм.
Убедительная просьба с жалобами обращаться напрямую к пользователю, разместившему торрент файл.

Вверх