Loading...
Error

(Rock) Сплин - Ключ к шифру (2016) [FLAC (Image+.CUE), Lossless]

Статистика раздачи
Размер:  377 MB   |    Зарегистрирован:  1 год 10 месяцев   |    Скачан:  11 раз

Полного источника не было: 3 дня

Сидов:  0  |  0 KB/s  ]   Личеров:  0  |  0 KB/s  ]

* - сиды/пиры с внешних источников

   
 
Автор Сообщение

romeoexpert Пол:Муж

02-Ноя-2016 17:19

Сплин - Ключ к шифру

Жанр: Rock
Год выпуска: 2016
Производитель: Сплин/Маркон
Аудиокодек: FLAC
Тип рипа: Image+.CUE
Битрейт аудио: Lossless
Продолжительность: 01:53:58

Треклист:
    01. Медный грош
    02. Пирамиды
    03. Нам, мудрецам
    04. Храм
    05. Окраины
    06. Кит
    07. Она была так прекрасна
    08. Джа играет джаз
    09. Реквием
    10. Земля уходит из-под ног
    11. Тревога
    12. Небесный хор
    13. Путь на восток
    14. День за днём
    15. Череп и кости

Код:

Exact Audio Copy V1.3 from 2. September 2016

Отчёт EAC об извлечении, выполненном 30. октября 2016, 12:26

Splean / Kluch k shifru

Дисковод: Optiarc DVD RW AD-5280S   Adapter: 1  ID: 0

Режим чтения                 : Достоверность
Использование точного потока : Да
Отключение кэша аудио        : Да
Использование указателей C2  : Нет

Коррекция смещения при чтении                     : 48
Способность читать области Lead-in и Lead-out     : Нет
Заполнение пропущенных сэмплов тишиной            : Да
Удаление блоков с тишиной в начале и конце        : Нет
При вычислениях CRC использовались нулевые сэмплы : Да
Интерфейс                                         : Встроенный Win32-интерфейс для Win NT/2000

Выходной формат          : Пользовательский кодировщик
Выбранный битрейт        : 1024 kBit/s
Качество                 : Высокий
Добавление ID3-тега      : Нет
Утилита сжатия           : D:\flac-1.3.1-win\win32\flac.exe
Дополнительные параметры : -V -8 -T "Date=%year%" -T "Genre=%genre%" %source%

TOC извлечённого CD

     Трек |   Старт  | Длительность | Начальный сектор | Конечный сектор
    ---------------------------------------------------------------------
       1  |  0:00.00 |    1:25.48   |           0      |       6422
       2  |  1:25.48 |    4:21.17   |        6423      |      26014
       3  |  5:46.65 |    4:57.28   |       26015      |      48317
       4  | 10:44.18 |    2:45.21   |       48318      |      60713
       5  | 13:29.39 |    6:00.15   |       60714      |      87728
       6  | 19:29.54 |    3:14.28   |       87729      |     102306
       7  | 22:44.07 |    2:47.21   |      102307      |     114852
       8  | 25:31.28 |    3:53.42   |      114853      |     132369
       9  | 29:24.70 |    3:22.09   |      132370      |     147528
      10  | 32:47.04 |    3:50.46   |      147529      |     164824
      11  | 36:37.50 |    3:21.45   |      164825      |     179944
      12  | 39:59.20 |    4:14.15   |      179945      |     199009
      13  | 44:13.35 |    3:09.15   |      199010      |     213199
      14  | 47:22.50 |    3:40.17   |      213200      |     229716
      15  | 51:02.67 |    2:54.57   |      229717      |     242823

Характеристики диапазона извлечения и сообщения об ошибках

Выбранный диапазон

     Имя файла D:\Splean - Kluch k shifru.wav

     Пиковый уровень 98.8 %
     Скорость извлечения 4.1 X
     Качество диапазона 99.9 %
     CRC теста 1A5D2E20
     CRC копии 1A5D2E20
     Копирование... OK

Ошибок не произошло

Конец отчёта

---- CUETools DB Plugin V2.1.6

[CTDB TOCID: mu8P8okCQt.YMlltF2YX2nJW8BE-] found
Submit result: already submitted
Track | CTDB Status
  1   | (4/4) Accurately ripped
  2   | (4/4) Accurately ripped
  3   | (4/4) Accurately ripped
  4   | (4/4) Accurately ripped
  5   | (4/4) Accurately ripped
  6   | (4/4) Accurately ripped
  7   | (4/4) Accurately ripped
  8   | (4/4) Accurately ripped
  9   | (4/4) Accurately ripped
 10   | (4/4) Accurately ripped
 11   | (4/4) Accurately ripped
 12   | (4/4) Accurately ripped
 13   | (4/4) Accurately ripped
 14   | (4/4) Accurately ripped
 15   | (4/4) Accurately ripped

==== Контрольная сумма отчёта 5C9D54AF9CEF1D7C9990BCDDC1174AF185535D8C0CD5C545BF488A961D33E0C9 ====

Код:

REM GENRE Rock
REM DATE 2016
REM DISCID DA0CA50F
REM COMMENT "ExactAudioCopy v1.3"
PERFORMER "СпЛин"
TITLE "Ключ к шифру"
REM COMPOSER ""
FILE "Сплин - Ключ к шифру.flac" WAVE
  TRACK 01 AUDIO
    TITLE "Медный грош"
    PERFORMER "СпЛин"
    REM COMPOSER ""
    INDEX 01 00:00:00
  TRACK 02 AUDIO
    TITLE "Пирамиды"
    PERFORMER "СпЛин"
    REM COMPOSER ""
    INDEX 01 01:25:48
  TRACK 03 AUDIO
    TITLE "Нам, мудрецам"
    PERFORMER "СпЛин"
    REM COMPOSER ""
    INDEX 01 05:46:65
  TRACK 04 AUDIO
    TITLE "Храм"
    PERFORMER "СпЛин"
    REM COMPOSER ""
    INDEX 01 10:44:18
  TRACK 05 AUDIO
    TITLE "Окраины"
    PERFORMER "СпЛин"
    REM COMPOSER ""
    INDEX 01 13:29:39
  TRACK 06 AUDIO
    TITLE "Кит"
    PERFORMER "СпЛин"
    REM COMPOSER ""
    INDEX 01 19:29:54
  TRACK 07 AUDIO
    TITLE "Она была так прекрасна"
    PERFORMER "СпЛин"
    REM COMPOSER ""
    INDEX 01 22:44:07
  TRACK 08 AUDIO
    TITLE "Джа играет джаз"
    PERFORMER "СпЛин"
    REM COMPOSER ""
    INDEX 01 25:31:28
  TRACK 09 AUDIO
    TITLE "Реквием"
    PERFORMER "СпЛин"
    REM COMPOSER ""
    INDEX 01 29:24:70
  TRACK 10 AUDIO
    TITLE "Земля уходит из-под ног"
    PERFORMER "СпЛин"
    REM COMPOSER ""
    INDEX 01 32:47:04
  TRACK 11 AUDIO
    TITLE "Тревога"
    PERFORMER "СпЛин"
    REM COMPOSER ""
    INDEX 01 36:37:50
  TRACK 12 AUDIO
    TITLE "Небесный хор"
    PERFORMER "СпЛин"
    REM COMPOSER ""
    INDEX 01 39:59:20
  TRACK 13 AUDIO
    TITLE "Путь на Восток"
    PERFORMER "СпЛин"
    REM COMPOSER ""
    INDEX 01 44:13:35
  TRACK 14 AUDIO
    TITLE "День за днём"
    PERFORMER "СпЛин"
    REM COMPOSER ""
    INDEX 01 47:22:50
  TRACK 15 AUDIO
    TITLE "Череп и кости"
    PERFORMER "СпЛин"
    REM COMPOSER ""
    INDEX 01 51:02:67

Код:

-----------------------

DON'T MODIFY THIS FILE

-----------------------

PERFORMER: auCDtect Task Manager, ver. 1.5.1RC4 build 1.5.1.5
Copyright (c) 2008-2010 y-soft. All rights reserved
http://y-soft.org

ANALYZER: auCDtect: CD records authenticity detector, version 0.8.2
Copyright (c) 2004 Oleg Berngardt. All rights reserved.
Copyright (c) 2004 Alexander Djourik. All rights reserved.

FILE: Сплин - Ключ к шифру.flac
  Size: 387185166 Hash: 92F9D6854BDE8163CB6194426B3946B0 Accuracy: -m0
  Conclusion: CDDA 100%
  Signature: 020D7A04D1F13997984A3144FFD20AD24EA05A84

Этот торрент недоступен для скачивания без регистрации, однако доступен по публичной magnet-ссылке (источники с публичных трекеров). Перед использованием ссылки прочтите, пожалуйста Пользовательское соглашение, а также как можно дольше оставайтесь на раздаче! Для того, чтобы скачать сам торрент-файл (который видит больше источников), а также для того, чтобы поблагодарить релизера, вам необходимо зарегистрироваться. Если регистрироваться лень - вы можете также попробовать скачать релиз по нашим партнерским ссылкам ниже. Кроме того, зарегистрированным пользователям не показывается всплывающая реклама при скачивании.

[underverse.su].t71939.torrent
Трекер: Зарегистрирован   [ 02.11.2016 17:19 ]  

Статус: проверено (by Бишеп at 02.11.2016 17:26)
Поблагодарили: пока никто не поблагодарил...
Тип торрента: публичный - доступные источники с открытых трекеров: 
Размер: 377 MB (занимает 0,08 DVDR, для записи нужно 1 болванка DVDR/RW)
 
 
Похожие темы
Форум Тема Автор Торрент Отв. Посл. сооб.
Отечественный Hard, Progressive, Melodic, AOR (Rock) Сплин - Резонанс, Часть 1 (2014) [MP3, 320 кб/с] Jimmy
33 | 0

0 | 2005

53

01.03.2014 16:10

Отечественный Punk, Grunge, Alternative (Rock) Сплин - Дискография (1994-2009) [MP3, 320 kbps] Jimmy
0 | 0

2 | 2176

19

28.07.2011 10:24

Отечественный Hard, Progressive, Melodic, AOR (Lossless) (Rock) Сплин - Встречная полоса (2018) [FLAC (Tracks), Lossless] WEB romeoexpert
43 | 0

0 | 637

25

26.05.2018 09:25

Архив (HQ рок) (Rock) Сплин - Обман зрения (2012) [WAVPack (Image+.CUE), 996 kbps] UgoChaves
0 | 0

1 | 1409

15

31.01.2018 21:13

22-Янв-2017 14:37

Топик был перенесен из форума Отечественный Hard, Progressive, Melodic, AOR в форум Отечественный Punk, Grunge, Alternative (Lossless)


Бишеп
 

Яндекс.Метрика powered by Sphinx


В Н И М А Н И Е
Сайт не распространяет и не хранит электронные версии произведений, а лишь бесплатно и без коммерческой выгоды (не требуя взамен платы,
SMS и т.д.) предоставляет доступ к создаваемому пользователями каталогу ссылок на торрент-файлы, которые содержат только списки хеш-сумм.
Убедительная просьба с жалобами обращаться напрямую к пользователю, разместившему торрент файл.

Вверх