Loading...
Error

(Post Punk, Dark Folk, Witch Punk) Сруб - Топь (2014) [FLAC (Tracks+.Cue), Lossless]

Статистика раздачи
Размер:  431 MB   |    Зарегистрирован:  1 год 11 месяцев   |    Скачан:  1 раз

Полного источника не было: 10 дней

Сидов:  0  |  0 KB/s  ]   Личеров:  0  |  0 KB/s  ]

* - сиды/пиры с внешних источников

   
 
Автор Сообщение

Бишеп Пол:Муж

04-Ноя-2016 07:03

Сруб - Топь

Жанр: Post Punk, Dark Folk, Witch Punk
Год выпуска: 2014
Источник: CD
Производитель диска: Infinite Fog Productions - IF-47
Аудиокодек: FLAC
Тип рипа: Tracks+.CUE
Битрейт аудио: lossless
Продолжительность: 00:58:28


Треклист:
01. Полынь (3:12)
02. Лень (4:22)
03. Тайной Тропой (5:03)
04. Грот (4:34)
05. Шепот и Вой Болот (4:43)
06. Комета (5:18)
07. Скрывая Злость (4:59)
08. Так Пляшет Смерть (4:28)
09. Когда Свечи Спят (7:57)
10. Василиск (4:38)
11. Чертог (4:38)
12. Круг Первый (На Память) (4:36)

Код:

Exact Audio Copy V1.0 beta 4 from 7. December 2014

EAC extraction logfile from 27. February 2015, 14:02

Сруб / Топь

Used drive  : Optiarc DVD RW AD-7280S   Adapter: 1  ID: 0

Read mode               : Secure
Utilize accurate stream : Yes
Defeat audio cache      : Yes
Make use of C2 pointers : No

Read offset correction                      : 48
Overread into Lead-In and Lead-Out          : No
Fill up missing offset samples with silence : Yes
Delete leading and trailing silent blocks   : No
Null samples used in CRC calculations       : Yes
Used interface                              : Native Win32 interface for Win NT & 2000
Gap handling                                : Appended to previous track

Used output format              : User Defined Encoder
Selected bitrate                : 1024 kBit/s
Quality                         : High
Add ID3 tag                     : No
Command line compressor         : B:\Portable Soft\foobar2000\encoders\flac-1.3.1-win\win64\flac.exe
Additional command line options : -8 -V -T "ARTIST=%artist%" -T "TITLE=%title%" -T "ALBUM=%albumtitle%" -T "DATE=%year%" -T "TRACKNUMBER=%tracknr%" -T "GENRE=%genre%" -T "PERFORMER=%albuminterpret%" -T "COMPOSER=%composer%" %haslyrics%--tag-from-file=LYRICS="%lyricsfile%"%haslyrics% -T "ALBUMARTIST=%albumartist%" -T "DISCNUMBER=%cdnumber%" -T "TOTALDISCS=%totalcds%" -T "TOTALTRACKS=%numtracks%" -T "COMMENT=%comment%" %source% -o %dest%

TOC of the extracted CD

     Track |   Start  |  Length  | Start sector | End sector
    ---------------------------------------------------------
        1  |  0:00.00 |  3:12.38 |         0    |    14437   
        2  |  3:12.38 |  4:22.60 |     14438    |    34147   
        3  |  7:35.23 |  5:03.47 |     34148    |    56919   
        4  | 12:38.70 |  4:34.30 |     56920    |    77499   
        5  | 17:13.25 |  4:43.42 |     77500    |    98766   
        6  | 21:56.67 |  5:18.12 |     98767    |   122628   
        7  | 27:15.04 |  4:59.71 |    122629    |   145124   
        8  | 32:15.00 |  4:28.63 |    145125    |   165287   
        9  | 36:43.63 |  7:57.16 |    165288    |   201078   
       10  | 44:41.04 |  4:38.04 |    201079    |   221932   
       11  | 49:19.08 |  4:38.39 |    221933    |   242821   
       12  | 53:57.47 |  4:36.00 |    242822    |   263521   

Track  1

     Filename B:\Torrents\_rips\_temp\01. Полынь.wav

     Pre-gap length  0:00:02.00

     Peak level 100.0 %
     Extraction speed 2.5 X
     Track quality 100.0 %
     Test CRC 3117B71C
     Copy CRC 3117B71C
     Track not present in AccurateRip database
     Copy OK

Track  2

     Filename B:\Torrents\_rips\_temp\02. Лень.wav

     Pre-gap length  0:00:02.00

     Peak level 100.0 %
     Extraction speed 2.8 X
     Track quality 100.0 %
     Test CRC 0353B18C
     Copy CRC 0353B18C
     Track not present in AccurateRip database
     Copy OK

Track  3

     Filename B:\Torrents\_rips\_temp\03. Тайной Тропой.wav

     Pre-gap length  0:00:02.00

     Peak level 100.0 %
     Extraction speed 3.1 X
     Track quality 100.0 %
     Test CRC EC910AC1
     Copy CRC EC910AC1
     Track not present in AccurateRip database
     Copy OK

Track  4

     Filename B:\Torrents\_rips\_temp\04. Грот.wav

     Pre-gap length  0:00:02.00

     Peak level 100.0 %
     Extraction speed 3.3 X
     Track quality 100.0 %
     Test CRC 4E60C9B2
     Copy CRC 4E60C9B2
     Track not present in AccurateRip database
     Copy OK

Track  5

     Filename B:\Torrents\_rips\_temp\05. Шепот и Вой Болот.wav

     Pre-gap length  0:00:02.00

     Peak level 100.0 %
     Extraction speed 3.6 X
     Track quality 100.0 %
     Test CRC F97674EB
     Copy CRC F97674EB
     Track not present in AccurateRip database
     Copy OK

Track  6

     Filename B:\Torrents\_rips\_temp\06. Комета.wav

     Pre-gap length  0:00:02.00

     Peak level 100.0 %
     Extraction speed 3.9 X
     Track quality 100.0 %
     Test CRC D20107CA
     Copy CRC D20107CA
     Track not present in AccurateRip database
     Copy OK

Track  7

     Filename B:\Torrents\_rips\_temp\07. Скрывая Злость.wav

     Pre-gap length  0:00:02.00

     Peak level 100.0 %
     Extraction speed 4.0 X
     Track quality 100.0 %
     Test CRC 143A71B2
     Copy CRC 143A71B2
     Track not present in AccurateRip database
     Copy OK

Track  8

     Filename B:\Torrents\_rips\_temp\08. Так Пляшет Смерть.wav

     Pre-gap length  0:00:02.00

     Peak level 100.0 %
     Extraction speed 4.2 X
     Track quality 100.0 %
     Test CRC E545B732
     Copy CRC E545B732
     Track not present in AccurateRip database
     Copy OK

Track  9

     Filename B:\Torrents\_rips\_temp\09. Когда Свечи Спят.wav

     Pre-gap length  0:00:02.00

     Peak level 100.0 %
     Extraction speed 4.7 X
     Track quality 100.0 %
     Test CRC D4FBA264
     Copy CRC D4FBA264
     Track not present in AccurateRip database
     Copy OK

Track 10

     Filename B:\Torrents\_rips\_temp\10. Василиск.wav

     Pre-gap length  0:00:02.00

     Peak level 100.0 %
     Extraction speed 4.7 X
     Track quality 100.0 %
     Test CRC 115AD7BA
     Copy CRC 115AD7BA
     Track not present in AccurateRip database
     Copy OK

Track 11

     Filename B:\Torrents\_rips\_temp\11. Чертог.wav

     Pre-gap length  0:00:02.00

     Peak level 100.0 %
     Extraction speed 4.3 X
     Track quality 99.9 %
     Test CRC 32C599BD
     Copy CRC 32C599BD
     Track not present in AccurateRip database
     Copy OK

Track 12

     Filename B:\Torrents\_rips\_temp\12. Круг Первый (На Память).wav

     Pre-gap length  0:00:02.00

     Peak level 100.0 %
     Extraction speed 5.0 X
     Track quality 100.0 %
     Test CRC B67FD359
     Copy CRC B67FD359
     Track not present in AccurateRip database
     Copy OK

None of the tracks are present in the AccurateRip database

No errors occurred

End of status report

---- CUETools DB Plugin V2.1.4

[CTDB TOCID: 9ewk.O.U.pt6NviINkKODMySPlc-] found
Submit result: 9ewk.O.U.pt6NviINkKODMySPlc- has been confirmed
Track | CTDB Status
  1   | (1/1) Accurately ripped
  2   | (1/1) Accurately ripped
  3   | (1/1) Accurately ripped
  4   | (1/1) Accurately ripped
  5   | (1/1) Accurately ripped
  6   | (1/1) Accurately ripped
  7   | (1/1) Accurately ripped
  8   | (1/1) Accurately ripped
  9   | (1/1) Accurately ripped
 10   | (1/1) Accurately ripped
 11   | (1/1) Accurately ripped
 12   | (1/1) Accurately ripped

==== Log checksum E91A0D48DA36E716456B109F300271FCF0D0E892D7369C2F102A1732A51A95FA ====

Код:

REM GENRE "Neofolk; Post-Punk; New Wave"
REM DATE 2014
REM DISCID A70DB90C
REM COMMENT "ExactAudioCopy v1.0b4"
PERFORMER "Сруб"
TITLE "Топь"
FILE "01. Полынь.flac" WAVE
  TRACK 01 AUDIO
    TITLE "Полынь"
    PERFORMER "Сруб"
    FLAGS DCP
    INDEX 01 00:00:00
  TRACK 02 AUDIO
    TITLE "Лень"
    PERFORMER "Сруб"
    FLAGS DCP
    INDEX 00 03:10:38
FILE "02. Лень.flac" WAVE
    INDEX 01 00:00:00
  TRACK 03 AUDIO
    TITLE "Тайной Тропой"
    PERFORMER "Сруб"
    FLAGS DCP
    INDEX 00 04:20:60
FILE "03. Тайной Тропой.flac" WAVE
    INDEX 01 00:00:00
  TRACK 04 AUDIO
    TITLE "Грот"
    PERFORMER "Сруб"
    FLAGS DCP
    INDEX 00 05:01:47
FILE "04. Грот.flac" WAVE
    INDEX 01 00:00:00
  TRACK 05 AUDIO
    TITLE "Шепот и Вой Болот"
    PERFORMER "Сруб"
    FLAGS DCP
    INDEX 00 04:32:30
FILE "05. Шепот и Вой Болот.flac" WAVE
    INDEX 01 00:00:00
  TRACK 06 AUDIO
    TITLE "Комета"
    PERFORMER "Сруб"
    FLAGS DCP
    INDEX 00 04:41:42
FILE "06. Комета.flac" WAVE
    INDEX 01 00:00:00
  TRACK 07 AUDIO
    TITLE "Скрывая Злость"
    PERFORMER "Сруб"
    FLAGS DCP
    INDEX 00 05:16:12
FILE "07. Скрывая Злость.flac" WAVE
    INDEX 01 00:00:00
  TRACK 08 AUDIO
    TITLE "Так Пляшет Смерть"
    PERFORMER "Сруб"
    FLAGS DCP
    INDEX 00 04:57:71
FILE "08. Так Пляшет Смерть.flac" WAVE
    INDEX 01 00:00:00
  TRACK 09 AUDIO
    TITLE "Когда Свечи Спят"
    PERFORMER "Сруб"
    FLAGS DCP
    INDEX 00 04:26:63
FILE "09. Когда Свечи Спят.flac" WAVE
    INDEX 01 00:00:00
  TRACK 10 AUDIO
    TITLE "Василиск"
    PERFORMER "Сруб"
    FLAGS DCP
    INDEX 00 07:55:16
FILE "10. Василиск.flac" WAVE
    INDEX 01 00:00:00
  TRACK 11 AUDIO
    TITLE "Чертог"
    PERFORMER "Сруб"
    FLAGS DCP
    INDEX 00 04:36:04
FILE "11. Чертог.flac" WAVE
    INDEX 01 00:00:00
  TRACK 12 AUDIO
    TITLE "Круг Первый (На Память)"
    PERFORMER "Сруб"
    FLAGS DCP
    INDEX 00 04:36:39
FILE "12. Круг Первый (На Память).flac" WAVE
    INDEX 01 00:00:00

Этот торрент недоступен для скачивания без регистрации, однако доступен по публичной magnet-ссылке (источники с публичных трекеров). Перед использованием ссылки прочтите, пожалуйста Пользовательское соглашение, а также как можно дольше оставайтесь на раздаче! Для того, чтобы скачать сам торрент-файл (который видит больше источников), а также для того, чтобы поблагодарить релизера, вам необходимо зарегистрироваться. Если регистрироваться лень - вы можете также попробовать скачать релиз по нашим партнерским ссылкам ниже. Кроме того, зарегистрированным пользователям не показывается всплывающая реклама при скачивании.

[underverse.su].t72107.torrent
Трекер: Зарегистрирован   [ 04.11.2016 07:03 ]  

Статус: проверено (by Бишеп at 04.11.2016 07:03)
Поблагодарили: пока никто не поблагодарил...
Тип торрента: публичный - доступные источники с открытых трекеров: 
Размер: 431 MB (занимает 0,1 DVDR, для записи нужно 1 болванка DVDR/RW)
 
 
Похожие темы
Форум Тема Автор Торрент Отв. Посл. сооб.
Отечественный Punk, Grunge, Alternative (Post Punk) Церковь Детства - Страна приливов. Госархивы (2017) [MP3, 320 kbps CBR] Darkferse
22 | 3

0 | 547

4

12.09.2017 09:22


Яндекс.Метрика powered by Sphinx


В Н И М А Н И Е
Сайт не распространяет и не хранит электронные версии произведений, а лишь бесплатно и без коммерческой выгоды (не требуя взамен платы,
SMS и т.д.) предоставляет доступ к создаваемому пользователями каталогу ссылок на торрент-файлы, которые содержат только списки хеш-сумм.
Убедительная просьба с жалобами обращаться напрямую к пользователю, разместившему торрент файл.

Вверх