Loading...
Error

(Alternative Rock) Линда - Серия «Новая Коллекция. Лучшие песни» (2010) ]FLAC (Image+.Cue), Lossless]

Статистика раздачи
Размер:  576 MB   |    Зарегистрирован:  1 год 10 месяцев   |    Скачан:  6 раз

Полного источника не было: 3 дня

Сидов:  0  |  0 KB/s  ]   Личеров:  0  |  0 KB/s  ]

* - сиды/пиры с внешних источников

   
 
Автор Сообщение

Бишеп Пол:Муж

04-Ноя-2016 07:19

Линда - Серия «Новая Коллекция. Лучшие песни»

Жанр: Alternative Rock
Год выпуска: 2010
Источник: CD
Производитель диска: Монолит - МТ 000410-402-1
Аудиокодек: FLAC
Тип рипа: Image+.CUE
Битрейт аудио: lossless
Продолжительность: 01:19:40


Треклист:
01. Мало огня
02. Ворона
03. Сидите потише
04. Танец под водой
05. Я не могу
06. Никому я тебя не отдам
07. Агония
08. Северный ветер
09. Беги
10. Отпусти меня
11. Марихуана
12. Я украду
13. Сделай так
14. Шоколад и слеза
15. Никогда
16. Цепи и кольца
17. По рельсам любви

Код:

Exact Audio Copy V1.0 beta 3 from 29. August 2011

Отчёт EAC об извлечении, выполненном 8. ноября 2014, 10:02

Линда / Серия «Новая Коллекция. Лучшие песни»

Дисковод: Optiarc DVD RW AD-5200S   Adapter: 3  ID: 0

Режим чтения                 : Достоверность
Использование точного потока : Да
Отключение кэша аудио        : Да
Использование указателей C2  : Нет

Коррекция смещения при чтении                     : 48
Способность читать области Lead-in и Lead-out     : Нет
Заполнение пропущенных сэмплов тишиной            : Да
Удаление блоков с тишиной в начале и конце        : Нет
При вычислениях CRC использовались нулевые сэмплы : Да
Интерфейс                                         : Установленный внешний ASPI-интерфейс

Выходной формат          : Пользовательский кодировщик
Выбранный битрейт        : 768 kBit/s
Качество                 : Высокий
Добавление ID3-тега      : Нет
Утилита сжатия           : C:\Program Files\Exact Audio Copy\FLAC\FLAC.EXE
Дополнительные параметры : -6 -V -T "ARTIST=%artist%" -T "TITLE=%title%" -T "ALBUM=%albumtitle%" -T "DATE=%year%" -T "TRACKNUMBER=%tracknr%" -T "GENRE=%genre%" -T "COMMENT=%comment%" -T "BAND=%albuminterpret%" -T "ALBUMARTIST=%albuminterpret%" -T "COMPOSER=%composer%" %haslyrics%--tag-from-file=LYRICS="%lyricsfile%"%haslyrics% -T "DISCNUMBER=%cdnumber%" -T "TOTALDISCS=%totalcds%" -T "TOTALTRACKS=%numtracks%" %hascover%--picture="%coverfile%"%hascover% %source% -o %dest%

TOC извлечённого CD

     Трек |   Старт  | Длительность | Начальный сектор | Конечный сектор
    ---------------------------------------------------------------------
       1  |  0:00.00 |    5:31.10   |           0      |      24834     
       2  |  5:31.10 |    5:17.69   |       24835      |      48678     
       3  | 10:49.04 |    4:53.61   |       48679      |      70714     
       4  | 15:42.65 |    5:26.05   |       70715      |      95169     
       5  | 21:08.70 |    4:53.17   |       95170      |     117161     
       6  | 26:02.12 |    4:54.68   |      117162      |     139279     
       7  | 30:57.05 |    3:24.41   |      139280      |     154620     
       8  | 34:21.46 |    5:20.36   |      154621      |     178656     
       9  | 39:42.07 |    4:32.16   |      178657      |     199072     
      10  | 44:14.23 |    4:10.09   |      199073      |     217831     
      11  | 48:24.32 |    5:11.51   |      217832      |     241207     
      12  | 53:36.08 |    3:03.72   |      241208      |     255004     
      13  | 56:40.05 |    6:49.49   |      255005      |     285728     
      14  | 63:29.54 |    4:24.29   |      285729      |     305557     
      15  | 67:54.08 |    4:09.08   |      305558      |     324240     
      16  | 72:03.16 |    3:38.64   |      324241      |     340654     
      17  | 75:42.05 |    3:57.73   |      340655      |     358502     

Характеристики диапазона извлечения и сообщения об ошибках

Выбранный диапазон

     Имя файла F:\LOSSLESS\Линда - 2010 - Серия «Новая Коллекция. Лучшие песни»\Линда - Серия «Новая Коллекция. Лучшие песни».wav

     Пиковый уровень 100.0 %
     Скорость извлечения 4.6 X
     Качество диапазона 100.0 %
     CRC теста C2DDD9C6
     CRC копии C2DDD9C6
     Копирование... OK

Ошибок не произошло

 
AccurateRip: сводка
 
Трек  1  : извлечено точно (доверие 1)  [258BB6AB]  (AR v2)
Трек  2  : извлечено точно (доверие 1)  [C527603B]  (AR v2)
Трек  3  : извлечено точно (доверие 1)  [A30B2A44]  (AR v2)
Трек  4  : извлечено точно (доверие 1)  [BEC350E9]  (AR v2)
Трек  5  : извлечено точно (доверие 1)  [196256A0]  (AR v2)
Трек  6  : извлечено точно (доверие 1)  [61281BED]  (AR v2)
Трек  7  : извлечено точно (доверие 1)  [6440D8D9]  (AR v2)
Трек  8  : извлечено точно (доверие 1)  [71FB28C2]  (AR v2)
Трек  9  : извлечено точно (доверие 1)  [73844C16]  (AR v2)
Трек 10  : извлечено точно (доверие 1)  [02BD4A02]  (AR v2)
Трек 11  : извлечено точно (доверие 1)  [9301E8BA]  (AR v2)
Трек 12  : извлечено точно (доверие 1)  [511B76AA]  (AR v2)
Трек 13  : извлечено точно (доверие 1)  [011A30D5]  (AR v2)
Трек 14  : извлечено точно (доверие 1)  [6C5404A2]  (AR v2)
Трек 15  : извлечено точно (доверие 1)  [3212786B]  (AR v2)
Трек 16  : извлечено точно (доверие 1)  [230659B8]  (AR v2)
Трек 17  : извлечено точно (доверие 1)  [F61B5DEE]  (AR v2)
 
Все треки извлечены точно

Конец отчёта

==== Контрольная сумма отчёта B7CBF442AEA2F4313EE1194953A09D6ABB74C1F2A57DD715538E8269EE414FDA ====

Код:

REM GENRE Rock
REM DATE 2010
REM DISCID ED12AC11
REM COMMENT "ExactAudioCopy v1.0b3"
PERFORMER "Линда"
TITLE "Серия «Новая Коллекция. Лучшие песни»"
FILE "Линда - Серия «Новая Коллекция. Лучшие песни».flac" WAVE
  TRACK 01 AUDIO
    TITLE "Мало огня"
    PERFORMER "Линда"
    FLAGS DCP
    INDEX 01 00:00:00
  TRACK 02 AUDIO
    TITLE "Ворона"
    PERFORMER "Линда"
    FLAGS DCP
    INDEX 01 05:31:10
  TRACK 03 AUDIO
    TITLE "Сидите потише"
    PERFORMER "Линда"
    FLAGS DCP
    INDEX 01 10:49:04
  TRACK 04 AUDIO
    TITLE "Танец под водой"
    PERFORMER "Линда"
    FLAGS DCP
    INDEX 00 15:40:65
    INDEX 01 15:42:65
  TRACK 05 AUDIO
    TITLE "Я не могу"
    PERFORMER "Линда"
    FLAGS DCP
    INDEX 00 21:06:70
    INDEX 01 21:08:70
  TRACK 06 AUDIO
    TITLE "Никому я тебя не отдам"
    PERFORMER "Линда"
    FLAGS DCP
    INDEX 00 26:00:12
    INDEX 01 26:02:12
  TRACK 07 AUDIO
    TITLE "Агония"
    PERFORMER "Линда"
    FLAGS DCP
    INDEX 01 30:57:05
  TRACK 08 AUDIO
    TITLE "Северный ветер"
    PERFORMER "Линда"
    FLAGS DCP
    INDEX 01 34:21:46
  TRACK 09 AUDIO
    TITLE "Беги"
    PERFORMER "Линда"
    FLAGS DCP
    INDEX 01 39:42:07
  TRACK 10 AUDIO
    TITLE "Отпусти меня"
    PERFORMER "Линда"
    FLAGS DCP
    INDEX 01 44:14:23
  TRACK 11 AUDIO
    TITLE "Марихуана"
    PERFORMER "Линда"
    FLAGS DCP
    INDEX 01 48:24:32
  TRACK 12 AUDIO
    TITLE "Я украду"
    PERFORMER "Линда"
    FLAGS DCP
    INDEX 01 53:36:08
  TRACK 13 AUDIO
    TITLE "Сделай так"
    PERFORMER "Линда"
    FLAGS DCP
    INDEX 00 56:38:05
    INDEX 01 56:40:05
  TRACK 14 AUDIO
    TITLE "Шоколад и слеза"
    PERFORMER "Линда"
    FLAGS DCP
    INDEX 01 63:29:54
  TRACK 15 AUDIO
    TITLE "Никогда"
    PERFORMER "Линда"
    FLAGS DCP
    INDEX 01 67:54:08
  TRACK 16 AUDIO
    TITLE "Цепи и кольца"
    PERFORMER "Линда"
    FLAGS DCP
    INDEX 01 72:03:16
  TRACK 17 AUDIO
    TITLE "По рельсам любви"
    PERFORMER "Линда"
    FLAGS DCP
    INDEX 00 75:40:05
    INDEX 01 75:42:05

Этот торрент недоступен для скачивания без регистрации, однако доступен по публичной magnet-ссылке (источники с публичных трекеров). Перед использованием ссылки прочтите, пожалуйста Пользовательское соглашение, а также как можно дольше оставайтесь на раздаче! Для того, чтобы скачать сам торрент-файл (который видит больше источников), а также для того, чтобы поблагодарить релизера, вам необходимо зарегистрироваться. Если регистрироваться лень - вы можете также попробовать скачать релиз по нашим партнерским ссылкам ниже. Кроме того, зарегистрированным пользователям не показывается всплывающая реклама при скачивании.

[underverse.su].t72110.torrent
Трекер: Зарегистрирован   [ 04.11.2016 07:19 ]  

Статус: проверено (by Бишеп at 04.11.2016 07:19)
Поблагодарили: пока никто не поблагодарил...
Тип торрента: публичный - доступные источники с открытых трекеров: 
Размер: 576 MB (занимает 0,13 DVDR, для записи нужно 1 болванка DVDR/RW)
 
 
Похожие темы
Форум Тема Автор Торрент Отв. Посл. сооб.
Зарубежная Pop Музыка (Alternative Pop, Neo Soul, Indie) Amanda Jenssen - Sanger fran on (2015) [MP3, 320 kbps] 90ytr90
1 | 0

0 | 1212

3

23.03.2015 19:02

Зарубежная Pop Музыка (Alternative, Indie) Anna of the North - Lovers (2017) [MP3, 320 kbps CBR] Darkferse
3 | 0

0 | 867

4

13.09.2017 08:47

Зарубежная Pop Музыка (Alternative, Pop, Soul) Plan B - Heaven Before All Hell Breaks Loose (2018) [MP3, 320 kbps CBR] 90ytr90
35 | 0

0 | 354

3

03.06.2018 05:52

Зарубежный Hard, Progressive, Soft, Melodic, AOR, Folk, Classic Rock (Alternative Rock / Progressive Rock) Muse - The 2nd Law (2012) [MP3, 320 kbps] Jimmy
0 | 0

0 | 1429

13

27.09.2012 04:30

Зарубежный Black, Death, Heavy, Thrash, Power, Folk, Gothic Metal (Alternative Metal) This Tragic Day - This Tragic Day (2012) [MP3, 320 kbps] NiiggazCPT
1 | 0

0 | 1597

4

28.10.2012 07:21

Зарубежный Punk, Hardcore, Grunge, Alternative (Alternative) Green Day - Greatest Hits: God's Favorite Band (2017) [iTunes AAC M4A, 256 kbps VBR] Web garry
1 | 0

5 | 3954

1

04.02.2010 17:52

Зарубежный Punk, Hardcore, Grunge, Alternative (Alternative) Red Hot Chili Peppers - Greatest Hits (2003) [iTunes AAC M4A, 256 kbps VBR] Web garry
2 | 0

0 | 2253

3

02.06.2009 18:51

Зарубежный Punk, Hardcore, Grunge, Alternative (Alternative) The Killers - Discography (2004-2013) [iTunes AAC M4A, 256 kbps VBR] Web garry
13 | 3

0 | 6659

4

20.06.2009 12:07

Зарубежный Punk, Hardcore, Grunge, Alternative (Alternative, Pop-Punk, Female Vocal) We Are the In Crowd - Weird Kids [Deluxe Edition] (2014) [MP3, 320 kbps] Jimmy
1 | 0

0 | 1248

3

23.04.2014 15:58

Зарубежный Punk, Hardcore, Grunge, Alternative (Alternative, Pop Punk, Emo) Fireworks - (Oh), Common Life (2014) [MP3, 320 kbps] Jimmy
0 | 1

0 | 1043

4

23.04.2014 15:55


Яндекс.Метрика powered by Sphinx


В Н И М А Н И Е
Сайт не распространяет и не хранит электронные версии произведений, а лишь бесплатно и без коммерческой выгоды (не требуя взамен платы,
SMS и т.д.) предоставляет доступ к создаваемому пользователями каталогу ссылок на торрент-файлы, которые содержат только списки хеш-сумм.
Убедительная просьба с жалобами обращаться напрямую к пользователю, разместившему торрент файл.

Вверх