Loading...
Error

(Soul, Downtempo, Trip Hop) Andreya Triana - Giants (2015) [FLAC (Image+.Cue), Lossless]

Статистика раздачи
Размер:  285 MB   |    Зарегистрирован:  2 года 2 месяца   |    Скачан:  5 раз

Полного источника не было: 6 дней

Сидов:  0  |  0 KB/s  ]   Личеров:  0  |  0 KB/s  ]

* - сиды/пиры с внешних источников

   
 
Автор Сообщение

Бишеп Пол:Муж

06-Ноя-2016 15:21

Andreya Triana - Giants

Жанр: Soul, Downtempo, Trip Hop
Год выпуска: 2015
Источник: CD
Производитель диска: Counter Records - COUNTCD061
Аудиокодек: FLAC
Тип рипа: Image+.CUE
Битрейт аудио: lossless
Продолжительность: 00:45:56


Треклист:
01. Paperwalls
02. Gold
03. That's Alright With Me
04. Lullaby
05. Giants
06. Heart In My Hands
07. Keep Running
08. The Changing Shapes Of Love
09. Clutterbug
10. Song For A Friend
11. It's Not Over
12. Everything You Never Had part 2

Код:

Exact Audio Copy V1.0 beta 6 from 9. April 2015

EAC extraction logfile from 17. May 2015, 13:49

Andreya Triana / Giants

Used drive  : hp      CDDVDW SH-216DB   Adapter: 1  ID: 0

Read mode               : Secure
Utilize accurate stream : Yes
Defeat audio cache      : Yes
Make use of C2 pointers : No

Read offset correction                      : 6
Overread into Lead-In and Lead-Out          : No
Fill up missing offset samples with silence : Yes
Delete leading and trailing silent blocks   : No
Null samples used in CRC calculations       : Yes
Used interface                              : Native Win32 interface for Win NT & 2000

Used output format : Internal WAV Routines
Sample format      : 44.100 Hz; 16 Bit; Stereo

TOC of the extracted CD

     Track |   Start  |  Length  | Start sector | End sector
    ---------------------------------------------------------
        1  |  0:00.00 |  3:51.73 |         0    |    17397   
        2  |  3:51.73 |  3:43.74 |     17398    |    34196   
        3  |  7:35.72 |  4:09.29 |     34197    |    52900   
        4  | 11:45.26 |  3:40.40 |     52901    |    69440   
        5  | 15:25.66 |  4:22.36 |     69441    |    89126   
        6  | 19:48.27 |  3:39.19 |     89127    |   105570   
        7  | 23:27.46 |  3:18.49 |    105571    |   120469   
        8  | 26:46.20 |  3:27.19 |    120470    |   136013   
        9  | 30:13.39 |  4:01.10 |    136014    |   154098   
       10  | 34:14.49 |  3:55.49 |    154099    |   171772   
       11  | 38:10.23 |  3:20.72 |    171773    |   186844   
       12  | 41:31.20 |  4:24.72 |    186845    |   206716   

Range status and errors

Selected range

     Filename E:\POST\Andreya Triana - Giants (EAC)\Andreya Triana - Giants.wav

     Peak level 98.4 %
     Extraction speed 6.6 X
     Range quality 99.9 %
     Test CRC 315CD812
     Copy CRC 315CD812
     Copy OK

No errors occurred

 
AccurateRip summary
 
Track  1  not present in database
Track  2  not present in database
Track  3  not present in database
Track  4  not present in database
Track  5  not present in database
Track  6  not present in database
Track  7  not present in database
Track  8  not present in database
Track  9  not present in database
Track 10  not present in database
Track 11  not present in database
Track 12  not present in database
 
None of the tracks are present in the AccurateRip database

End of status report

Код:

REM GENRE Pop
REM DATE 2015
REM DISCID 9F0AC40C
REM COMMENT "ExactAudioCopy v1.0b6"
PERFORMER "Andreya Triana"
TITLE "Giants"
FILE "Andreya Triana - Giants.flac" WAVE
  TRACK 01 AUDIO
    TITLE "Paperwalls"
    PERFORMER "Andreya Triana"
    INDEX 01 00:00:00
  TRACK 02 AUDIO
    TITLE "Gold"
    PERFORMER "Andreya Triana"
    INDEX 01 03:51:73
  TRACK 03 AUDIO
    TITLE "That's Alright With Me"
    PERFORMER "Andreya Triana"
    INDEX 01 07:35:72
  TRACK 04 AUDIO
    TITLE "Lullaby"
    PERFORMER "Andreya Triana"
    INDEX 01 11:45:26
  TRACK 05 AUDIO
    TITLE "Giants"
    PERFORMER "Andreya Triana"
    INDEX 01 15:25:66
  TRACK 06 AUDIO
    TITLE "Heart In My Hands"
    PERFORMER "Andreya Triana"
    INDEX 01 19:48:27
  TRACK 07 AUDIO
    TITLE "Keep Running"
    PERFORMER "Andreya Triana"
    INDEX 01 23:27:46
  TRACK 08 AUDIO
    TITLE "The Changing Shapes Of Love"
    PERFORMER "Andreya Triana"
    INDEX 01 26:46:20
  TRACK 09 AUDIO
    TITLE "Clutterbug"
    PERFORMER "Andreya Triana"
    INDEX 01 30:13:39
  TRACK 10 AUDIO
    TITLE "Song For A Friend"
    PERFORMER "Andreya Triana"
    INDEX 01 34:14:49
  TRACK 11 AUDIO
    TITLE "It's Not Over"
    PERFORMER "Andreya Triana"
    INDEX 01 38:10:23
  TRACK 12 AUDIO
    TITLE "Everything You Never Had part 2"
    PERFORMER "Andreya Triana"
    INDEX 01 41:31:20

Этот торрент недоступен для скачивания без регистрации, однако доступен по публичной magnet-ссылке (источники с публичных трекеров). Перед использованием ссылки прочтите, пожалуйста Пользовательское соглашение, а также как можно дольше оставайтесь на раздаче! Для того, чтобы скачать сам торрент-файл (который видит больше источников), а также для того, чтобы поблагодарить релизера, вам необходимо зарегистрироваться. Если регистрироваться лень - вы можете также попробовать скачать релиз по нашим партнерским ссылкам ниже. Кроме того, зарегистрированным пользователям не показывается всплывающая реклама при скачивании.

[underverse.su].t72474.torrent
Трекер: Зарегистрирован   [ 06.11.2016 15:21 ]  

Статус: проверено (by Бишеп at 06.11.2016 15:21)
Поблагодарили: пока никто не поблагодарил...
Тип торрента: публичный - доступные источники с открытых трекеров: 
Размер: 285 MB (занимает 0,06 DVDR, для записи нужно 1 болванка DVDR/RW)
 
 

Яндекс.Метрика powered by Sphinx


В Н И М А Н И Е
Сайт не распространяет и не хранит электронные версии произведений, а лишь бесплатно и без коммерческой выгоды (не требуя взамен платы,
SMS и т.д.) предоставляет доступ к создаваемому пользователями каталогу ссылок на торрент-файлы, которые содержат только списки хеш-сумм.
Убедительная просьба с жалобами обращаться напрямую к пользователю, разместившему торрент файл.

Вверх