Loading...
Error

(Авторская песня) Олег Митяев - Лучшие Песни (1999) [FLAC (Image+.Cue), Lossless]

Статистика раздачи
Размер:  413 MB   |    Зарегистрирован:  1 год 9 месяцев   |    Скачан:  7 раз

Полного источника не было: 7 часов

Сидов:  0  |  0 KB/s  ]   Личеров:  0  |  0 KB/s  ]

* - сиды/пиры с внешних источников

   
 
Автор Сообщение

Бишеп Пол:Муж

13-Ноя-2016 18:56

Олег Митяев - Лучшие Песни

Жанр: Авторская песня
Год выпуска: 1999
Источник: CD
Производитель диска: Фамилия Энтертейнмент - FE 225110-2
Аудиокодек: FLAC
Тип рипа: Image+.CUE
Битрейт аудио: lossless
Продолжительность: 01:06:25


Треклист:
01. Неутешительные выводы
02. Как здорово
03. Соседка
04. Самая любимая песня
05. В осеннем парке
06. Давай с тобой поговорим
07. Француженка
08. Авиатор
09. Светлое прошлое
10. Дорога
11. С добрым утром, любимая
12. Вечная любовь
13. Лето - это маленькая жизнь
14. Письмо из Африки
15. Крепитесь люди, скоро лето!
16. Мама
17. Чужая война
18. Воскресение

Код:

Exact Audio Copy V1.0 beta 1 from 15. November 2010

Отчёт EAC об извлечении, выполненном 26. января 2011, 19:24

Олег Митяев / Лучшие песни

Дисковод: PIONEER DVD-RW  DVR-118L   Adapter: 0  ID: 0

Режим чтения                 : Достоверность
Использование точного потока : Да
Отключение кэша аудио        : Да
Использование указателей C2  : Нет

Коррекция смещения при чтении                     : 6
Способность читать области Lead-in и Lead-out     : Нет
Заполнение пропущенных сэмплов тишиной            : Да
Удаление блоков с тишиной в начале и конце        : Нет
При вычислениях CRC использовались нулевые сэмплы : Да
Интерфейс                                         : Встроенный Win32-интерфейс для Win NT/2000

Выходной формат          : Пользовательский кодировщик
Выбранный битрейт        : 768 kBit/s
Качество                 : Высокий
Добавление ID3-тэга      : Нет
Утилита сжатия           : C:\Program Files\Exact Audio Copy\FLAC\FLAC.EXE
Дополнительные параметры : -6 -V -T "ARTIST=%a" -T "TITLE=%t" -T "ALBUM=%g" -T "DATE=%y" -T "TRACKNUMBER=%n" -T "GENRE=%m" -T "COMMENT=%e" %j--picture="%i"%j %s -o %d

TOC извлечённого CD

     Трек |   Старт  | Длительность | Начальный сектор | Конечный сектор
    ---------------------------------------------------------------------
       1  |  0:00.00 |    2:57.50   |           0      |      13324     
       2  |  2:57.50 |    3:11.11   |       13325      |      27660     
       3  |  6:08.61 |    3:35.60   |       27661      |      43845     
       4  |  9:44.46 |    4:29.70   |       43846      |      64090     
       5  | 14:14.41 |    2:46.07   |       64091      |      76547     
       6  | 17:00.48 |    2:57.68   |       76548      |      89890     
       7  | 19:58.41 |    3:38.09   |       89891      |     106249     
       8  | 23:36.50 |    3:48.59   |      106250      |     123408     
       9  | 27:25.34 |    4:27.41   |      123409      |     143474     
      10  | 31:53.00 |    3:40.03   |      143475      |     159977     
      11  | 35:33.03 |    3:04.19   |      159978      |     173796     
      12  | 38:37.22 |    2:45.23   |      173797      |     186194     
      13  | 41:22.45 |    3:22.54   |      186195      |     201398     
      14  | 44:45.24 |    3:32.58   |      201399      |     217356     
      15  | 48:18.07 |    5:03.34   |      217357      |     240115     
      16  | 53:21.41 |    4:28.10   |      240116      |     260225     
      17  | 57:49.51 |    4:24.67   |      260226      |     280092     
      18  | 62:14.43 |    4:19.73   |      280093      |     299590     

Характеристики диапазона извлечения и сообщения об ошибках

Выбранный диапазон

     Имя файла I:\Раздачи\Олег Митяев _Лучшие песни\Олег Митяев - Лучшие песни.wav

     Пиковый уровень 96.5 %
0.1 X
     Качество диапазона 100.0 %
     CRC теста 3D88E335
     CRC копии 3D88E335
     Копирование... OK

Ошибок не произошло

 
AccurateRip: сводка
 
Трек  1  точное извлечение (доверие 4)  [74108686]
Трек  2  точное извлечение (доверие 4)  [6BEA51EB]
Трек  3  точное извлечение (доверие 3)  [7E2E46D5]
Трек  4  точное извлечение (доверие 4)  [DCA43468]
Трек  5  точное извлечение (доверие 4)  [85EFF50D]
Трек  6  точное извлечение (доверие 4)  [AC21C655]
Трек  7  точное извлечение (доверие 4)  [B76EF7D4]
Трек  8  точное извлечение (доверие 4)  [2B37D46B]
Трек  9  точное извлечение (доверие 4)  [D0334BF9]
Трек 10  точное извлечение (доверие 4)  [D2F33702]
Трек 11  точное извлечение (доверие 4)  [70B4A98C]
Трек 12  точное извлечение (доверие 4)  [DDB5B795]
Трек 13  точное извлечение (доверие 5)  [B217FCC5]
Трек 14  точное извлечение (доверие 4)  [AC103627]
Трек 15  точное извлечение (доверие 4)  [8D9D2E53]
Трек 16  точное извлечение (доверие 4)  [5FF01156]
Трек 17  точное извлечение (доверие 3)  [99D8E203]
Трек 18  точное извлечение (доверие 3)  [8C5E7EBB]
 
Все треки извлечены точно

Конец отчёта

====  CABF7147DE4626DF4F65827DFE2BD4574E5BF82DFCD915C2C75C2DE11CD282A4 ====

Код:

REM GENRE Folk
REM DATE 1999
REM DISCID F30F9A12
REM COMMENT "ExactAudioCopy v1.0b1"
PERFORMER "Олег Митяев"
TITLE "Лучшие песни"
FILE "Олег Митяев - Лучшие песни.flac" WAVE
  TRACK 01 AUDIO
    TITLE "Неутешительные выводы"
    PERFORMER "Олег Митяев"
    INDEX 01 00:00:00
  TRACK 02 AUDIO
    TITLE "Как здорово"
    PERFORMER "Олег Митяев"
    INDEX 00 02:54:68
    INDEX 01 02:57:50
  TRACK 03 AUDIO
    TITLE "Соседка"
    PERFORMER "Олег Митяев"
    INDEX 00 06:06:04
    INDEX 01 06:08:61
  TRACK 04 AUDIO
    TITLE "Самая любимая песня"
    PERFORMER "Олег Митяев"
    INDEX 00 09:41:64
    INDEX 01 09:44:46
  TRACK 05 AUDIO
    TITLE "В осеннем парке"
    PERFORMER "Олег Митяев"
    INDEX 00 14:11:59
    INDEX 01 14:14:41
  TRACK 06 AUDIO
    TITLE "Давай с тобой поговорим"
    PERFORMER "Олег Митяев"
    INDEX 00 16:57:66
    INDEX 01 17:00:48
  TRACK 07 AUDIO
    TITLE "Француженка"
    PERFORMER "Олег Митяев"
    INDEX 00 19:55:59
    INDEX 01 19:58:41
  TRACK 08 AUDIO
    TITLE "Авиатор"
    PERFORMER "Олег Митяев"
    INDEX 00 23:33:68
    INDEX 01 23:36:50
  TRACK 09 AUDIO
    TITLE "Светлое прошлое"
    PERFORMER "Олег Митяев"
    INDEX 00 27:22:52
    INDEX 01 27:25:34
  TRACK 10 AUDIO
    TITLE "Дорога"
    PERFORMER "Олег Митяев"
    INDEX 00 31:50:18
    INDEX 01 31:53:00
  TRACK 11 AUDIO
    TITLE "С добрым утром, любимая"
    PERFORMER "Олег Митяев"
    INDEX 00 35:30:21
    INDEX 01 35:33:03
  TRACK 12 AUDIO
    TITLE "Вечная любовь"
    PERFORMER "Олег Митяев"
    INDEX 00 38:34:40
    INDEX 01 38:37:22
  TRACK 13 AUDIO
    TITLE "Лето - это маленькая жизнь"
    PERFORMER "Олег Митяев"
    INDEX 00 41:19:63
    INDEX 01 41:22:45
  TRACK 14 AUDIO
    TITLE "Письмо из Африки"
    PERFORMER "Олег Митяев"
    INDEX 00 44:42:42
    INDEX 01 44:45:24
  TRACK 15 AUDIO
    TITLE "Крепитесь, люди, скоро лето!"
    PERFORMER "Олег Митяев"
    INDEX 00 48:15:25
    INDEX 01 48:18:07
  TRACK 16 AUDIO
    TITLE "Мама"
    PERFORMER "Олег Митяев"
    INDEX 00 53:18:59
    INDEX 01 53:21:41
  TRACK 17 AUDIO
    TITLE "Чужая война"
    PERFORMER "Олег Митяев"
    INDEX 00 57:46:69
    INDEX 01 57:49:51
  TRACK 18 AUDIO
    TITLE "Воскресенье"
    PERFORMER "Олег Митяев"
    INDEX 00 62:11:61
    INDEX 01 62:14:43

Этот торрент недоступен для скачивания без регистрации, однако доступен по публичной magnet-ссылке (источники с публичных трекеров). Перед использованием ссылки прочтите, пожалуйста Пользовательское соглашение, а также как можно дольше оставайтесь на раздаче! Для того, чтобы скачать сам торрент-файл (который видит больше источников), а также для того, чтобы поблагодарить релизера, вам необходимо зарегистрироваться. Если регистрироваться лень - вы можете также попробовать скачать релиз по нашим партнерским ссылкам ниже. Кроме того, зарегистрированным пользователям не показывается всплывающая реклама при скачивании.

[underverse.su].t73533.torrent
Трекер: Зарегистрирован   [ 13.11.2016 18:56 ]  

Статус: проверено (by Бишеп at 13.11.2016 18:56)
Поблагодарили: пока никто не поблагодарил...
Тип торрента: публичный - доступные источники с открытых трекеров: 
Размер: 413 MB (занимает 0,09 DVDR, для записи нужно 1 болванка DVDR/RW)
 
 
Похожие темы
Форум Тема Автор Торрент Отв. Посл. сооб.
Авторские песни, Барды (Авторская песня) Владимир Высоцкий - Полная коллекция (2009) [MP3, 320 kbps] Добрый жмот
9 | 2

11 | 5925

83

31.07.2013 07:22

Авторские песни, Барды (Авторская песня) Тимур Шаов - О чем молчал Герасим... (2010) [MP3, 320 kbps] KonKoSerg
9 | 0

4 | 2633

26

24.08.2013 06:03

Авторские песни, Барды (Авторская песня) Татьяна и Сергей Никитины - Городок, что я выдумал (2011) [MP3, 320 kbps] KonKoSerg
2 | 0

1 | 2931

41

11.05.2013 10:18

Авторские песни, Барды (Авторская песня) Владимир Высоцкий - Дискография [22 СD] (2001-2007) [MP3, 320 CBR] vovanig
1 | 1

2 | 3583

60

07.08.2014 19:18

Авторские песни, Барды (Авторская песня) Семён Слепаков - Альбом 1 (2012) [MP3, 320 kbps CBR] Бишеп
1 | 0

1 | 2084

54

11.05.2013 07:53

Авторские песни, Барды (Авторская песня, Фолк) Никола Емелин (Емеля) - Дискография (6 альбомов) (1989 - 2011) [MP3, 64-320 kbps] gregsib
27 | 3

1 | 2100

25

05.07.2013 18:48

Авторские песни, Барды (Авторская песня) Вячеслав Мясников (Уральские пельмени) - Сборник песен (2014) [MP3, 128-320 kbps CBR] terra07
1 | 0

1 | 2737

43

09.12.2015 14:37

Авторские песни, Барды (Авторская песня) Владимир Высоцкий - Спасибо, что живой. Песни из кинофильма... - и не только (2012) [MP3, 320 kbps CBR] valera87
1 | 0

0 | 1280

8

14.03.2015 16:31

Авторские песни, Барды (Lossless) (Авторская песня) Владимир Высоцкий - Grand Collection. Часть 1 / Часть 2 (2004) [FLAC (Tracks+.CUE), lossless] garry
0 | 0

1 | 1874

15

21.04.2012 07:06

# Авторские песни, Барды (Lossless) (Авторская песня) Евгений Баранник - На Прорезной (2010) [FLAC (Tracks+.CUE), lossless] garry
0 | 0

0 | 2446

2

20.02.2012 18:25


Яндекс.Метрика powered by Sphinx


В Н И М А Н И Е
Сайт не распространяет и не хранит электронные версии произведений, а лишь бесплатно и без коммерческой выгоды (не требуя взамен платы,
SMS и т.д.) предоставляет доступ к создаваемому пользователями каталогу ссылок на торрент-файлы, которые содержат только списки хеш-сумм.
Убедительная просьба с жалобами обращаться напрямую к пользователю, разместившему торрент файл.

Вверх