Loading...
Error

(Авторская песня) Юрий Лоза - The best of (2001) [FLAC (Tracks+.CUE), Lossless]

Статистика раздачи
Размер:  450 MB   |    Зарегистрирован:  1 год 9 месяцев   |    Скачан:  2 раза

Полного источника не было: 6 месяцев

Сидов:  0  |  0 KB/s  ]   Личеров:  0  |  0 KB/s  ]

* - сиды/пиры с внешних источников

   
 
Автор Сообщение

Бишеп Пол:Муж

14-Ноя-2016 15:13

Юрий Лоза - The best of

Жанр: Авторская песня
Год выпуска: 2001
Источник: CD
Производитель диска: Студия "Музыка будущего"
Аудиокодек: FLAC
Тип рипа: Tracks+.CUE
Битрейт аудио: lossless
Продолжительность: 01:13:07


Треклист:
01. Плот
02. Цыганская душа
03. Опять
04. Сто часов
05. Мать пишет
06. Зима
07. Пиво
08. Я умею мечтать
09. Мой трамвай последний
10. Тоска
11. Пой, моя гитара
12. Девочка в баре
13. Пора по чуть-чуть
14. Баба Люба
15. Исполнительный лист
16. Гараж
17. Новый год
18. Песенка проститутки

Код:

Exact Audio Copy V1.0 beta 3 from 29. August 2011

Отчёт EAC об извлечении, выполненном 20. января 2013, 17:20

Юрий Лоза / Юрий Лоза/The best of

Дисковод: Optiarc DVD RW AD-7203S   Adapter: 3  ID: 0

Режим чтения                 : Достоверность
Использование точного потока : Да
Отключение кэша аудио        : Да
Использование указателей C2  : Нет

Коррекция смещения при чтении                     : 48
Способность читать области Lead-in и Lead-out     : Нет
Заполнение пропущенных сэмплов тишиной            : Да
Удаление блоков с тишиной в начале и конце        : Нет
При вычислениях CRC использовались нулевые сэмплы : Да
Интерфейс                                         : Встроенный Win32-интерфейс для Win NT/2000
Обработка зазоров                                 : Добавлено к предыдущему треку

Выходной формат          : Пользовательский кодировщик
Выбранный битрейт        : 128 kBit/s
Качество                 : Высокий
Добавление ID3-тега      : Нет
Утилита сжатия           : C:\Program Files\Exact Audio Copy\Flac\flac.exe
Дополнительные параметры : -V -8 -T "Genre=%genre%" -T "Artist=%artist%" -T "Title=%title%" -T "Album=%albumtitle%" -T "Date=%year%" -T "Tracknumber=%tracknr%" -T "Comment=%comment%" %source%

TOC извлечённого CD

     Трек |   Старт  | Длительность | Начальный сектор | Конечный сектор
    ---------------------------------------------------------------------
       1  |  0:00.00 |    5:07.54   |           0      |      23078     
       2  |  5:07.54 |    4:03.10   |       23079      |      41313     
       3  |  9:10.64 |    4:18.14   |       41314      |      60677     
       4  | 13:29.03 |    3:32.67   |       60678      |      76644     
       5  | 17:01.70 |    2:36.51   |       76645      |      88395     
       6  | 19:38.46 |    4:05.10   |       88396      |     106780     
       7  | 23:43.56 |    3:50.26   |      106781      |     124056     
       8  | 27:34.07 |    4:25.00   |      124057      |     143931     
       9  | 31:59.07 |    4:34.65   |      143932      |     164546     
      10  | 36:33.72 |    5:09.52   |      164547      |     187773     
      11  | 41:43.49 |    4:42.51   |      187774      |     208974     
      12  | 46:26.25 |    3:24.39   |      208975      |     224313     
      13  | 49:50.64 |    4:54.19   |      224314      |     246382     
      14  | 54:45.08 |    3:27.04   |      246383      |     261911     
      15  | 58:12.12 |    3:40.12   |      261912      |     278423     
      16  | 61:52.24 |    4:05.10   |      278424      |     296808     
      17  | 65:57.34 |    3:34.22   |      296809      |     312880     
      18  | 69:31.56 |    3:35.29   |      312881      |     329034     

Трек  1

     Имя файла C:\Program Files\Exact Audio Copy\Flac\01 Плот.wav

     Длина предзазора  0:00:02.00

     Пиковый уровень 98.9 %
     Скорость извлечения 2.3 X
     Качество трека 99.9 %
     CRC теста CD0DE6B3
     CRC копии CD0DE6B3
     Копирование... OK

Трек  2

     Имя файла C:\Program Files\Exact Audio Copy\Flac\02 Цыганская душа.wav

     Пиковый уровень 84.1 %
     Скорость извлечения 2.8 X
     Качество трека 100.0 %
     CRC теста 1EEC93C5
     CRC копии 1EEC93C5
     Копирование... OK

Трек  3

     Имя файла C:\Program Files\Exact Audio Copy\Flac\03 Опять.wav

     Пиковый уровень 98.0 %
     Скорость извлечения 3.0 X
     Качество трека 100.0 %
     CRC теста C77FA5FD
     CRC копии C77FA5FD
     Копирование... OK

Трек  4

     Имя файла C:\Program Files\Exact Audio Copy\Flac\04 Сто часов.wav

     Пиковый уровень 73.8 %
     Скорость извлечения 3.1 X
     Качество трека 100.0 %
     CRC теста 04532337
     CRC копии 04532337
     Копирование... OK

Трек  5

     Имя файла C:\Program Files\Exact Audio Copy\Flac\05 Мать пишет.wav

     Пиковый уровень 98.9 %
     Скорость извлечения 2.6 X
     Качество трека 99.9 %
     CRC теста 1BBCDEB0
     CRC копии 1BBCDEB0
     Копирование... OK

Трек  6

     Имя файла C:\Program Files\Exact Audio Copy\Flac\06 Зима.wav

     Пиковый уровень 95.8 %
     Скорость извлечения 3.5 X
     Качество трека 100.0 %
     CRC теста 63EC71A3
     CRC копии 63EC71A3
     Копирование... OK

Трек  7

     Имя файла C:\Program Files\Exact Audio Copy\Flac\07 Пиво.wav

     Пиковый уровень 98.1 %
     Скорость извлечения 3.6 X
     Качество трека 100.0 %
     CRC теста A3225D8B
     CRC копии A3225D8B
     Копирование... OK

Трек  8

     Имя файла C:\Program Files\Exact Audio Copy\Flac\08 Я умею мечтать.wav

     Пиковый уровень 99.9 %
     Скорость извлечения 3.9 X
     Качество трека 100.0 %
     CRC теста EAD3EE2B
     CRC копии EAD3EE2B
     Копирование... OK

Трек  9

     Имя файла C:\Program Files\Exact Audio Copy\Flac\09 Мой трамвай последний.wav

     Пиковый уровень 81.7 %
     Скорость извлечения 3.6 X
     Качество трека 99.9 %
     CRC теста 860DF181
     CRC копии 860DF181
     Копирование... OK

Трек 10

     Имя файла C:\Program Files\Exact Audio Copy\Flac\10 Тоска.wav

     Пиковый уровень 97.7 %
     Скорость извлечения 4.3 X
     Качество трека 100.0 %
     CRC теста 05DF6C49
     CRC копии 05DF6C49
     Копирование... OK

Трек 11

     Имя файла C:\Program Files\Exact Audio Copy\Flac\11 Пой, моя гитара.wav

     Пиковый уровень 95.2 %
     Скорость извлечения 4.5 X
     Качество трека 100.0 %
     CRC теста 99DDDB1F
     CRC копии 99DDDB1F
     Копирование... OK

Трек 12

     Имя файла C:\Program Files\Exact Audio Copy\Flac\12 Девочка в баре.wav

     Пиковый уровень 99.6 %
     Скорость извлечения 3.8 X
     Качество трека 99.9 %
     CRC теста 364CC9F5
     CRC копии 364CC9F5
     Копирование... OK

Трек 13

     Имя файла C:\Program Files\Exact Audio Copy\Flac\13 Пора по чуть-чуть.wav

     Пиковый уровень 99.9 %
     Скорость извлечения 4.8 X
     Качество трека 100.0 %
     CRC теста F483EE91
     CRC копии F483EE91
     Копирование... OK

Трек 14

     Имя файла C:\Program Files\Exact Audio Copy\Flac\14 Баба Люба.wav

     Пиковый уровень 93.2 %
     Скорость извлечения 4.6 X
     Качество трека 100.0 %
     CRC теста D2C2ADD6
     CRC копии D2C2ADD6
     Копирование... OK

Трек 15

     Имя файла C:\Program Files\Exact Audio Copy\Flac\15 Исполнительный лист.wav

     Пиковый уровень 98.9 %
     Скорость извлечения 4.8 X
     Качество трека 100.0 %
     CRC теста 7B71BCCB
     CRC копии 7B71BCCB
     Копирование... OK

Трек 16

     Имя файла C:\Program Files\Exact Audio Copy\Flac\16 Гараж.wav

     Пиковый уровень 99.7 %
     Скорость извлечения 5.0 X
     Качество трека 100.0 %
     CRC теста 7630FAB3
     CRC копии 7630FAB3
     Копирование... OK

Трек 17

     Имя файла C:\Program Files\Exact Audio Copy\Flac\17 Новый год.wav

     Пиковый уровень 99.7 %
     Скорость извлечения 5.0 X
     Качество трека 100.0 %
     CRC теста 38FDE7B1
     CRC копии 38FDE7B1
     Копирование... OK

Трек 18

     Имя файла C:\Program Files\Exact Audio Copy\Flac\18 Песенка проститутки.wav

     Пиковый уровень 99.7 %
     Скорость извлечения 5.1 X
     Качество трека 100.0 %
     CRC теста 98D809C2
     CRC копии 98D809C2
     Копирование... OK

Ошибок не произошло

Конец отчёта

==== Контрольная сумма отчёта 71C6816352B1C8E752CB4AC2387269C2ECFFBDAF3CB983A8AE07FA6DF23091FC ====

Код:

REM GENRE Rock
REM DATE 2001
REM DISCID 0C112312
REM COMMENT "ExactAudioCopy v1.0b3"
CATALOG 0000000000000
PERFORMER "Юрий Лоза"
TITLE "Юрий Лоза/The best of"
FILE "01 Плот.wav" WAVE
  TRACK 01 AUDIO
    TITLE "Плот"
    PERFORMER "Юрий Лоза"
    INDEX 01 00:00:00
FILE "02 Цыганская душа.wav" WAVE
  TRACK 02 AUDIO
    TITLE "Цыганская душа"
    PERFORMER "Юрий Лоза"
    INDEX 01 00:00:00
FILE "03 Опять.wav" WAVE
  TRACK 03 AUDIO
    TITLE "Опять"
    PERFORMER "Юрий Лоза"
    INDEX 01 00:00:00
FILE "04 Сто часов.wav" WAVE
  TRACK 04 AUDIO
    TITLE "Сто часов"
    PERFORMER "Юрий Лоза"
    INDEX 01 00:00:00
FILE "05 Мать пишет.wav" WAVE
  TRACK 05 AUDIO
    TITLE "Мать пишет"
    PERFORMER "Юрий Лоза"
    INDEX 01 00:00:00
FILE "06 Зима.wav" WAVE
  TRACK 06 AUDIO
    TITLE "Зима"
    PERFORMER "Юрий Лоза"
    INDEX 01 00:00:00
FILE "07 Пиво.wav" WAVE
  TRACK 07 AUDIO
    TITLE "Пиво"
    PERFORMER "Юрий Лоза"
    INDEX 01 00:00:00
FILE "08 Я умею мечтать.wav" WAVE
  TRACK 08 AUDIO
    TITLE "Я умею мечтать"
    PERFORMER "Юрий Лоза"
    INDEX 01 00:00:00
FILE "09 Мой трамвай последний.wav" WAVE
  TRACK 09 AUDIO
    TITLE "Мой трамвай последний"
    PERFORMER "Юрий Лоза"
    INDEX 01 00:00:00
FILE "10 Тоска.wav" WAVE
  TRACK 10 AUDIO
    TITLE "Тоска"
    PERFORMER "Юрий Лоза"
    INDEX 01 00:00:00
FILE "11 Пой, моя гитара.wav" WAVE
  TRACK 11 AUDIO
    TITLE "Пой, моя гитара"
    PERFORMER "Юрий Лоза"
    INDEX 01 00:00:00
FILE "12 Девочка в баре.wav" WAVE
  TRACK 12 AUDIO
    TITLE "Девочка в баре"
    PERFORMER "Юрий Лоза"
    INDEX 01 00:00:00
FILE "13 Пора по чуть-чуть.wav" WAVE
  TRACK 13 AUDIO
    TITLE "Пора по чуть-чуть"
    PERFORMER "Юрий Лоза"
    INDEX 01 00:00:00
FILE "14 Баба Люба.wav" WAVE
  TRACK 14 AUDIO
    TITLE "Баба Люба"
    PERFORMER "Юрий Лоза"
    INDEX 01 00:00:00
FILE "15 Исполнительный лист.wav" WAVE
  TRACK 15 AUDIO
    TITLE "Исполнительный лист"
    PERFORMER "Юрий Лоза"
    INDEX 01 00:00:00
FILE "16 Гараж.wav" WAVE
  TRACK 16 AUDIO
    TITLE "Гараж"
    PERFORMER "Юрий Лоза"
    INDEX 01 00:00:00
FILE "17 Новый год.wav" WAVE
  TRACK 17 AUDIO
    TITLE "Новый год"
    PERFORMER "Юрий Лоза"
    INDEX 01 00:00:00
FILE "18 Песенка проститутки.wav" WAVE
  TRACK 18 AUDIO
    TITLE "Песенка проститутки"
    PERFORMER "Юрий Лоза"
    INDEX 01 00:00:00

Этот торрент недоступен для скачивания без регистрации, однако доступен по публичной magnet-ссылке (источники с публичных трекеров). Перед использованием ссылки прочтите, пожалуйста Пользовательское соглашение, а также как можно дольше оставайтесь на раздаче! Для того, чтобы скачать сам торрент-файл (который видит больше источников), а также для того, чтобы поблагодарить релизера, вам необходимо зарегистрироваться. Если регистрироваться лень - вы можете также попробовать скачать релиз по нашим партнерским ссылкам ниже. Кроме того, зарегистрированным пользователям не показывается всплывающая реклама при скачивании.

[underverse.su].t73589.torrent
Трекер: Зарегистрирован   [ 14.11.2016 15:13 ]  

Статус: проверено (by Бишеп at 14.11.2016 15:14)
Поблагодарили: пока никто не поблагодарил...
Тип торрента: публичный - доступные источники с открытых трекеров: 
Размер: 450 MB (занимает 0,1 DVDR, для записи нужно 1 болванка DVDR/RW)
 
 
Похожие темы
Форум Тема Автор Торрент Отв. Посл. сооб.
Авторские песни, Барды (Авторская песня) Владимир Высоцкий - Полная коллекция (2009) [MP3, 320 kbps] Добрый жмот
17 | 3

11 | 5932

83

31.07.2013 07:22

Авторские песни, Барды (Авторская песня) Тимур Шаов - О чем молчал Герасим... (2010) [MP3, 320 kbps] KonKoSerg
9 | 0

4 | 2634

26

24.08.2013 06:03

Авторские песни, Барды (Авторская песня) Татьяна и Сергей Никитины - Городок, что я выдумал (2011) [MP3, 320 kbps] KonKoSerg
2 | 0

1 | 2934

41

11.05.2013 10:18

Авторские песни, Барды (Авторская песня) Владимир Высоцкий - Дискография [22 СD] (2001-2007) [MP3, 320 CBR] vovanig
2 | 1

2 | 3586

60

07.08.2014 19:18

Авторские песни, Барды (Авторская песня) Семён Слепаков - Альбом 1 (2012) [MP3, 320 kbps CBR] Бишеп
0 | 0

1 | 2087

54

11.05.2013 07:53

Авторские песни, Барды (Авторская песня, Фолк) Никола Емелин (Емеля) - Дискография (6 альбомов) (1989 - 2011) [MP3, 64-320 kbps] gregsib
27 | 3

1 | 2103

25

05.07.2013 18:48

Авторские песни, Барды (Авторская песня) Вячеслав Мясников (Уральские пельмени) - Сборник песен (2014) [MP3, 128-320 kbps CBR] terra07
1 | 0

1 | 2739

43

09.12.2015 14:37

Авторские песни, Барды (Авторская песня) Владимир Высоцкий - Спасибо, что живой. Песни из кинофильма... - и не только (2012) [MP3, 320 kbps CBR] valera87
1 | 0

0 | 1282

8

14.03.2015 16:31

Авторские песни, Барды (Lossless) (Авторская песня) Владимир Высоцкий - Grand Collection. Часть 1 / Часть 2 (2004) [FLAC (Tracks+.CUE), lossless] garry
0 | 0

1 | 1876

15

21.04.2012 07:06

# Авторские песни, Барды (Lossless) (Авторская песня) Евгений Баранник - На Прорезной (2010) [FLAC (Tracks+.CUE), lossless] garry
0 | 0

0 | 2447

2

20.02.2012 18:25


Яндекс.Метрика powered by Sphinx


В Н И М А Н И Е
Сайт не распространяет и не хранит электронные версии произведений, а лишь бесплатно и без коммерческой выгоды (не требуя взамен платы,
SMS и т.д.) предоставляет доступ к создаваемому пользователями каталогу ссылок на торрент-файлы, которые содержат только списки хеш-сумм.
Убедительная просьба с жалобами обращаться напрямую к пользователю, разместившему торрент файл.

Вверх