Loading...
Error

(Hip-Hop, R'n'B, Soul) Anderson. Paak - Malibu (2016) [FLAC (Tracks+.Cue), Lossless]

Статистика раздачи
Размер:  408 MB   |    Зарегистрирован:  11 месяцев   |    Скачан:  3 раза

Полного источника не было: 17 дней

Сидов:  0  |  0 KB/s  ]   Личеров:  0  |  0 KB/s  ]

* - сиды/пиры с внешних источников

   
 
Автор Сообщение

Бишеп Пол:Муж

17-Ноя-2016 03:43

Anderson. Paak - Malibu

Жанр: Hip-Hop, R'n'B, Soul
Год выпуска: 2016
Источник: CD
Производитель диска: OBE, Steel Wool Records - ERE218
Аудиокодек: FLAC
Тип рипа: Tracks+.CUE
Битрейт аудио: lossless
Продолжительность: 01:01:02


Треклист:
01. The Bird (3:38)
02. Heart Don't Stand A Chance (5:12)
03. The Waters (feat. BJ the Chicago Kid) (2:54)
04. The Season / Carry Me (5:28)
05. Put Me Thru (2:40)
06. Am I Wrong (feat. ScHoolBoy Q) (4:13)
07. Without You (feat. Rapsody) (3:19)
08. Parking Lot (3:54)
09. Lite Weight (feat. The Free Nationals United Fellowship Choir) (3:26)
10. Room In Here (feat. Sonyae Elise & The Game) (3:59)
11. Water Fall (Interlude) (1:58)
12. Your Prime (3:57)
13. Come Down (2:56)
14. Silicon Valley (4:04)
15. Celebrate (3:46)
16. The Dreamer (feat. Talib Kweli & Timan Family Choir) (5:40)

Код:

Exact Audio Copy V1.0 beta 3 from 29. August 2011

EAC extraction logfile from 2. February 2016, 14:58

Anderson .Paak / Malibu

Used drive  : hp      DVD-RAM UJ8D1   Adapter: 0  ID: 0

Read mode               : Secure
Utilize accurate stream : Yes
Defeat audio cache      : Yes
Make use of C2 pointers : No

Read offset correction                      : 6
Overread into Lead-In and Lead-Out          : No
Fill up missing offset samples with silence : Yes
Delete leading and trailing silent blocks   : No
Null samples used in CRC calculations       : Yes
Used interface                              : Native Win32 interface for Win NT & 2000
Gap handling                                : Appended to previous track

Used output format              : User Defined Encoder
Selected bitrate                : 1024 kBit/s
Quality                         : High
Add ID3 tag                     : No
Command line compressor         : C:\Program Files (x86)\Exact Audio Copy\Flac\flac.exe
Additional command line options : -8 -V -T "ARTIST=%artist%" -T "TITLE=%title%" -T "ALBUM=%albumtitle%" -T "DATE=%year%" -T "TRACKNUMBER=%tracknr%" -T "GENRE=%genre%" -T "PERFORMER=%albuminterpret%" -T "COMPOSER=%composer%" %haslyrics%--tag-from-file=LYRICS="%lyricsfile%"%haslyrics% -T "ALBUMARTIST=%albumartist%" -T "DISCNUMBER=%cdnumber%" -T "TOTALDISCS=%totalcds%" -T "TOTALTRACKS=%numtracks%" -T "COMMENT=%comment%" %source% -o %dest%

TOC of the extracted CD

     Track |   Start  |  Length  | Start sector | End sector
    ---------------------------------------------------------
        1  |  0:00.00 |  3:37.58 |         0    |    16332   
        2  |  3:37.58 |  5:12.27 |     16333    |    39759   
        3  |  8:50.10 |  2:54.19 |     39760    |    52828   
        4  | 11:44.29 |  5:28.61 |     52829    |    77489   
        5  | 17:13.15 |  2:40.57 |     77490    |    89546   
        6  | 19:53.72 |  4:13.39 |     89547    |   108560   
        7  | 24:07.36 |  3:19.26 |    108561    |   123511   
        8  | 27:26.62 |  3:54.25 |    123512    |   141086   
        9  | 31:21.12 |  3:26.27 |    141087    |   156563   
       10  | 34:47.39 |  3:59.13 |    156564    |   174501   
       11  | 38:46.52 |  1:58.04 |    174502    |   183355   
       12  | 40:44.56 |  3:57.08 |    183356    |   201138   
       13  | 44:41.64 |  2:56.52 |    201139    |   214390   
       14  | 47:38.41 |  4:04.63 |    214391    |   232753   
       15  | 51:43.29 |  3:46.14 |    232754    |   249717   
       16  | 55:29.43 |  5:39.73 |    249718    |   275215   

Track  1

     Filename C:\Users\Guest Account\Music\Rips\FLAC\Anderson. Paak - Malibu [FLAC]\01 The Bird.wav

     Pre-gap length  0:00:02.00

     Peak level 97.9 %
     Extraction speed 2.1 X
     Track quality 99.9 %
     Test CRC 7BF77DFD
     Copy CRC 7BF77DFD
     Track not present in AccurateRip database
     Copy OK

Track  2

     Filename C:\Users\Guest Account\Music\Rips\FLAC\Anderson. Paak - Malibu [FLAC]\02 Heart Don't Stand a Chance.wav

     Peak level 98.3 %
     Extraction speed 3.1 X
     Track quality 100.0 %
     Test CRC FFFAB990
     Copy CRC FFFAB990
     Track not present in AccurateRip database
     Copy OK

Track  3

     Filename C:\Users\Guest Account\Music\Rips\FLAC\Anderson. Paak - Malibu [FLAC]\03 The Waters (feat. B.J. the Chicago Kid).wav

     Peak level 97.7 %
     Extraction speed 2.4 X
     Track quality 99.9 %
     Test CRC B5EBB4E8
     Copy CRC B5EBB4E8
     Track not present in AccurateRip database
     Copy OK

Track  4

     Filename C:\Users\Guest Account\Music\Rips\FLAC\Anderson. Paak - Malibu [FLAC]\04 The Season , Carry Me.wav

     Peak level 97.7 %
     Extraction speed 3.7 X
     Track quality 100.0 %
     Test CRC F41CF15A
     Copy CRC F41CF15A
     Track not present in AccurateRip database
     Copy OK

Track  5

     Filename C:\Users\Guest Account\Music\Rips\FLAC\Anderson. Paak - Malibu [FLAC]\05 Put Me Thru.wav

     Peak level 98.2 %
     Extraction speed 3.5 X
     Track quality 100.0 %
     Test CRC 2B29E8A0
     Copy CRC 2B29E8A0
     Track not present in AccurateRip database
     Copy OK

Track  6

     Filename C:\Users\Guest Account\Music\Rips\FLAC\Anderson. Paak - Malibu [FLAC]\06 Am I Wrong (feat. ScHoolboy Q).wav

     Peak level 100.0 %
     Extraction speed 3.8 X
     Track quality 100.0 %
     Test CRC 91311104
     Copy CRC 91311104
     Track not present in AccurateRip database
     Copy OK

Track  7

     Filename C:\Users\Guest Account\Music\Rips\FLAC\Anderson. Paak - Malibu [FLAC]\07 Without You (feat. Rapsody).wav

     Peak level 98.0 %
     Extraction speed 4.0 X
     Track quality 100.0 %
     Test CRC A617BBFE
     Copy CRC A617BBFE
     Track not present in AccurateRip database
     Copy OK

Track  8

     Filename C:\Users\Guest Account\Music\Rips\FLAC\Anderson. Paak - Malibu [FLAC]\08 Parking Lot.wav

     Peak level 97.7 %
     Extraction speed 4.2 X
     Track quality 100.0 %
     Test CRC 7DA38BF1
     Copy CRC 7DA38BF1
     Track not present in AccurateRip database
     Copy OK

Track  9

     Filename C:\Users\Guest Account\Music\Rips\FLAC\Anderson. Paak - Malibu [FLAC]\09 Lite Weight (feat. The Free National United Fellowship Choir).wav

     Peak level 100.0 %
     Extraction speed 4.2 X
     Track quality 100.0 %
     Test CRC FCF789A4
     Copy CRC FCF789A4
     Track not present in AccurateRip database
     Copy OK

Track 10

     Filename C:\Users\Guest Account\Music\Rips\FLAC\Anderson. Paak - Malibu [FLAC]\10 Room in Here (feat. The Game & Sonyae Elise).wav

     Peak level 100.0 %
     Extraction speed 4.6 X
     Track quality 100.0 %
     Test CRC 2D80C95E
     Copy CRC 2D80C95E
     Track not present in AccurateRip database
     Copy OK

Track 11

     Filename C:\Users\Guest Account\Music\Rips\FLAC\Anderson. Paak - Malibu [FLAC]\11 Water Fall.wav

     Peak level 97.7 %
     Extraction speed 4.0 X
     Track quality 100.0 %
     Test CRC D9D76FD0
     Copy CRC D9D76FD0
     Track not present in AccurateRip database
     Copy OK

Track 12

     Filename C:\Users\Guest Account\Music\Rips\FLAC\Anderson. Paak - Malibu [FLAC]\12 Your Prime.wav

     Peak level 98.0 %
     Extraction speed 4.9 X
     Track quality 100.0 %
     Test CRC F0C8D3F9
     Copy CRC F0C8D3F9
     Track not present in AccurateRip database
     Copy OK

Track 13

     Filename C:\Users\Guest Account\Music\Rips\FLAC\Anderson. Paak - Malibu [FLAC]\13 Come Down.wav

     Peak level 97.8 %
     Extraction speed 4.8 X
     Track quality 100.0 %
     Test CRC ABAE0CAE
     Copy CRC ABAE0CAE
     Track not present in AccurateRip database
     Copy OK

Track 14

     Filename C:\Users\Guest Account\Music\Rips\FLAC\Anderson. Paak - Malibu [FLAC]\14 Silicon Valley.wav

     Peak level 97.8 %
     Extraction speed 5.2 X
     Track quality 100.0 %
     Test CRC 74BB0A56
     Copy CRC 74BB0A56
     Track not present in AccurateRip database
     Copy OK

Track 15

     Filename C:\Users\Guest Account\Music\Rips\FLAC\Anderson. Paak - Malibu [FLAC]\15 Celebrate.wav

     Peak level 97.9 %
     Extraction speed 5.2 X
     Track quality 100.0 %
     Test CRC 03FE2110
     Copy CRC 03FE2110
     Track not present in AccurateRip database
     Copy OK

Track 16

     Filename C:\Users\Guest Account\Music\Rips\FLAC\Anderson. Paak - Malibu [FLAC]\16 The Dreamer (feat. Talib Kweli & Timan Family Choir).wav

     Peak level 100.0 %
     Extraction speed 4.8 X
     Track quality 99.9 %
     Test CRC 6666F809
     Copy CRC 6666F809
     Track not present in AccurateRip database
     Copy OK

None of the tracks are present in the AccurateRip database

No errors occurred

End of status report

==== Log checksum A3FF947EE053046F4252BE0881959B6D63D9281C37E9D3CE094268FDD48C1DE0 ====

Код:

REM GENRE "Soul / Hip Hop"
REM DATE 2016
REM DISCID DF0E5510
REM COMMENT "ExactAudioCopy v1.0b3"
PERFORMER "Anderson .Paak"
TITLE "Malibu"
FILE "01 The Bird.wav" WAVE
  TRACK 01 AUDIO
    TITLE "The Bird"
    PERFORMER "Anderson .Paak"
    ISRC USUYG1088413
    INDEX 01 00:00:00
FILE "02 Heart Don't Stand a Chance.wav" WAVE
  TRACK 02 AUDIO
    TITLE "Heart Don't Stand a Chance"
    PERFORMER "Anderson .Paak"
    ISRC USUYG1088414
    INDEX 01 00:00:00
FILE "03 The Waters (feat. B.J. the Chicago Kid).wav" WAVE
  TRACK 03 AUDIO
    TITLE "The Waters (feat. B.J. the Chicago Kid)"
    PERFORMER "Anderson .Paak"
    ISRC USUYG1088415
    INDEX 01 00:00:00
FILE "04 The Season , Carry Me.wav" WAVE
  TRACK 04 AUDIO
    TITLE "The Season / Carry Me"
    PERFORMER "Anderson .Paak"
    ISRC USUYG1088416
    INDEX 01 00:00:00
FILE "05 Put Me Thru.wav" WAVE
  TRACK 05 AUDIO
    TITLE "Put Me Thru"
    PERFORMER "Anderson .Paak"
    ISRC USUYG1088417
    INDEX 01 00:00:00
FILE "06 Am I Wrong (feat. ScHoolboy Q).wav" WAVE
  TRACK 06 AUDIO
    TITLE "Am I Wrong (feat. ScHoolboy Q)"
    PERFORMER "Anderson .Paak"
    ISRC USUYG1088418
    INDEX 01 00:00:00
FILE "07 Without You (feat. Rapsody).wav" WAVE
  TRACK 07 AUDIO
    TITLE "Without You (feat. Rapsody)"
    PERFORMER "Anderson .Paak"
    ISRC USUYG1088419
    INDEX 01 00:00:00
FILE "08 Parking Lot.wav" WAVE
  TRACK 08 AUDIO
    TITLE "Parking Lot"
    PERFORMER "Anderson .Paak"
    ISRC USUYG1088420
    INDEX 01 00:00:00
FILE "09 Lite Weight (feat. The Free National United Fellowship Choir).wav" WAVE
  TRACK 09 AUDIO
    TITLE "Lite Weight (feat. The Free National United Fellowship Choir)"
    PERFORMER "Anderson .Paak"
    ISRC USUYG1088421
    INDEX 01 00:00:00
FILE "10 Room in Here (feat. The Game & Sonyae Elise).wav" WAVE
  TRACK 10 AUDIO
    TITLE "Room in Here (feat. The Game & Sonyae Elise)"
    PERFORMER "Anderson .Paak"
    ISRC USUYG1088422
    INDEX 01 00:00:00
FILE "11 Water Fall.wav" WAVE
  TRACK 11 AUDIO
    TITLE "Water Fall"
    PERFORMER "Anderson .Paak"
    ISRC USUYG1088423
    INDEX 01 00:00:00
FILE "12 Your Prime.wav" WAVE
  TRACK 12 AUDIO
    TITLE "Your Prime"
    PERFORMER "Anderson .Paak"
    ISRC USUYG1088424
    INDEX 01 00:00:00
FILE "13 Come Down.wav" WAVE
  TRACK 13 AUDIO
    TITLE "Come Down"
    PERFORMER "Anderson .Paak"
    ISRC USUYG1088425
    INDEX 01 00:00:00
FILE "14 Silicon Valley.wav" WAVE
  TRACK 14 AUDIO
    TITLE "Silicon Valley"
    PERFORMER "Anderson .Paak"
    ISRC USUYG1088426
    INDEX 01 00:00:00
FILE "15 Celebrate.wav" WAVE
  TRACK 15 AUDIO
    TITLE "Celebrate"
    PERFORMER "Anderson .Paak"
    ISRC USUYG1088427
    INDEX 01 00:00:00
FILE "16 The Dreamer (feat. Talib Kweli & Timan Family Choir).wav" WAVE
  TRACK 16 AUDIO
    TITLE "The Dreamer (feat. Talib Kweli & Timan Family Choir)"
    PERFORMER "Anderson .Paak"
    ISRC USUYG1088428
    INDEX 01 00:00:00

Этот торрент недоступен для скачивания без регистрации, однако доступен по публичной magnet-ссылке (источники с публичных трекеров). Перед использованием ссылки прочтите, пожалуйста Пользовательское соглашение, а также как можно дольше оставайтесь на раздаче! Для того, чтобы скачать сам торрент-файл (который видит больше источников), а также для того, чтобы поблагодарить релизера, вам необходимо зарегистрироваться. Если регистрироваться лень - вы можете также попробовать скачать релиз по нашим партнерским ссылкам ниже. Кроме того, зарегистрированным пользователям не показывается всплывающая реклама при скачивании.

[underverse.me].t95547.torrent
Трекер: Зарегистрирован   [ 30.01.2018 22:14 ]  

Статус: проверено (by Бишеп at 30.01.2018 22:15)
Поблагодарили: пока никто не поблагодарил...
Тип торрента: публичный - доступные источники с открытых трекеров: 
Размер: 408 MB (занимает 0,09 DVDR, для записи нужно 1 болванка DVDR/RW)
 
 
Похожие темы
Форум Тема Автор Торрент Отв. Посл. сооб.
Electro, Breakbeat, Dubstep (Hip-Hop, Electronic) Lindemann feat. Haftbefehl - Mathematik [EP] (2018) [MP3, 320 kbps CBR] 90ytr90
3 | 3

0 | 304

3

19.12.2018 16:53

Chillout, Lounge, Downtempo (Hip-Hop, Jazz, Chillout) Blazo - Discography (3 Albums, 1 Mixtape 2009-2012) [MP3, 320 kbps] WEB 8ad_R060d
2 | 0

1 | 1820

2

18.01.2014 06:56

Зарубежный Rap, Hip-Hop (Hip-Hop, Jazz, Dub) Stand High Patrol - The Shift (2017) [MP3, 320 kbps CBR] Darkferse
5 | 0

0 | 623

1

10.07.2017 17:34

Зарубежный Rap, Hip-Hop (Hip-Hop, Bay Area Rap) AG Cubano - Cash & Carry (2016) [MP3, 320 kbps] ANDRAKO
1 | 0

0 | 704

1

16.11.2016 07:53

Зарубежный Rap, Hip-Hop (Hip-Hop, Bay Area Rap) K-Loc - Moe Crime (2016) [MP3, 320 kbps] ANDRAKO
1 | 0

0 | 667

1

11.11.2016 15:06

Зарубежный Rap, Hip-Hop (Hip-Hop, Old School, Rap) Kris Kross - Gonna Make U Jump (Greatest Hits) (1998) [MP3, 320 kbps] uzi2009
5 | 0

0 | 2441

5

17.01.2014 21:56

Зарубежный Rap, Hip-Hop (Hip-Hop, Grime) Dizzee Rascal - The Fifth (2013) [MP3, 320 kbps] uzi2009
1 | 0

0 | 1338

6

17.01.2014 22:16

Зарубежный Rap, Hip-Hop (Hip-hop, Jazz Hop) Kero One - Discography (7CD 2006-2012) [MP3, 320 kbps, V2] 8ad_R060d
1 | 1

0 | 1547

2

25.03.2014 07:50

Зарубежный Rap, Hip-Hop (Hip-Hop, West Coast Rap) Quiz - Air Max 90's (2015) [MP3, 320 kbps] ANDRAKO
1 | 0

0 | 771

1

14.11.2016 09:33

Зарубежный Rap, Hip-Hop (Hip-Hop, Rap) Rick Ross - Rather You Than Me (2017) [AAC, 256 kbps VBR] Darkferse
1 | 0

0 | 665

3

05.04.2017 04:44


Яндекс.Метрика powered by Sphinx


В Н И М А Н И Е
Сайт не распространяет и не хранит электронные версии произведений, а лишь бесплатно и без коммерческой выгоды (не требуя взамен платы,
SMS и т.д.) предоставляет доступ к создаваемому пользователями каталогу ссылок на торрент-файлы, которые содержат только списки хеш-сумм.
Убедительная просьба с жалобами обращаться напрямую к пользователю, разместившему торрент файл.

Вверх