Loading...
Error

Красная черепаха / The Red Turtle / La tortue rouge (Майкл Дадок де Уит) [2016 г., мультфильм, фэнтези, BDRip 1080p]

Статистика раздачи
Размер:  5,46 GB   |    Зарегистрирован:  1 год 8 месяцев   |    Скачан:  10 раз

Полного источника не было: 10 часов

Сидов:  0  |  0 KB/s  ]   Личеров:  0  |  0 KB/s  ]

* - сиды/пиры с внешних источников

   
 
Автор Сообщение

makkol Пол:Муж

30-Ноя-2016 10:51

Красная черепаха / The Red Turtle / La tortue rouge


Год выпуска: 2016
Жанр: мультфильм, фэнтези
Производство: Франция , Бельгия , Япония [Prima Linea Productions, Why Not Productions, Wild Bunch, Studio Ghibli]
Режиссер: Майкл Дадок де Уит
Перевод: не требуется - фильм без диалогов
Сюжет фильма:
Мужчина попадает на необитаемый остров. Ему удаётся построить плот, но далеко уплыть не получается — красная черепаха пресекает все его попытки к бегству.

  • Мировая премьера: 18 мая 2016
  • Российская премьера: 16 февраля 2017


Качество видео: BDRip 1080p

Продолжительность: 01:20:50
Формат: MKV
Видео: MPEG-4 AVC, 1920x1040 (1.85:1), 8165 kbps
Аудио: французский, оригинал, DTS 5.1, 1509 kbps

Код:

Format                      : Matroska
Format version              : Version 2
File size                   : 5.46 GiB
Duration                    : 1 h 20 min
Overall bit rate            : 9 667 kb/s
Writing application         : mkvmerge v6.6.0 ('The Edge Of The In Between') built on Dec 1 2013 17:55:00
Writing library             : libebml v1.3.0 + libmatroska v1.4.1

Video
ID                          : 1
Format                      : AVC
Format/Info                 : Advanced Video Codec
Format profile              : High@L4.1
Format settings, CABAC      : Yes
Format settings, ReFrames   : 4 frames
Codec ID                    : V_MPEG4/ISO/AVC
Duration                    : 1 h 20 min
Bit rate                    : 8 165 kb/s
Width                       : 1 920 pixels
Height                      : 1 040 pixels
Display aspect ratio        : 1.85:1
Frame rate mode             : Constant
Frame rate                  : 23.976 (24000/1001) FPS
Color space                 : YUV
Chroma subsampling          : 4:2:0
Bit depth                   : 8 bits
Scan type                   : Progressive
Bits/(Pixel*Frame)          : 0.171
Stream size                 : 4.50 GiB (82%)
Writing library             : x264 core 148 r2705 3f5ed56
Encoding settings           : cabac=1 / ref=4 / deblock=1:0:0 / analyse=0x3:0x113 / me=umh / subme=8 / psy=1 / psy_rd=1.00:0.00 / mixed_ref=1 / me_range=16 / chroma_me=1 / trellis=1 / 8x8dct=1 / cqm=0 / deadzone=21,11 / fast_pskip=1 / chroma_qp_offset=-2 / threads=18 / lookahead_threads=3 / sliced_threads=0 / nr=0 / decimate=1 / interlaced=0 / bluray_compat=0 / constrained_intra=0 / bframes=3 / b_pyramid=2 / b_adapt=2 / b_bias=0 / direct=3 / weightb=1 / open_gop=0 / weightp=2 / keyint=240 / keyint_min=24 / scenecut=40 / intra_refresh=0 / rc_lookahead=50 / rc=2pass / mbtree=1 / bitrate=8165 / ratetol=1.0 / qcomp=0.60 / qpmin=0 / qpmax=69 / qpstep=4 / cplxblur=20.0 / qblur=0.5 / ip_ratio=1.40 / aq=1:1.00
Language                    : English
Default                     : Yes
Forced                      : No

Audio
ID                          : 2
Format                      : DTS
Format/Info                 : Digital Theater Systems
Mode                        : 16
Format settings, Endianness : Big
Codec ID                    : A_DTS
Duration                    : 1 h 20 min
Bit rate mode               : Constant
Bit rate                    : 1 509 kb/s
Channel(s)                  : 6 channels
Channel positions           : Front: L C R, Side: L R, LFE
Sampling rate               : 48.0 kHz
Frame rate                  : 93.750 FPS (512 spf)
Bit depth                   : 24 bits
Compression mode            : Lossy
Stream size                 : 872 MiB (16%)
Title                       : French DTS 1509kbps
Language                    : French
Default                     : Yes
Forced                      : No

Menu
00:00:00.000                : en:00:00:00.000
00:07:15.685                : en:00:07:15.685
00:17:34.720                : en:00:17:34.720
00:27:39.366                : en:00:27:39.366
00:36:32.148                : en:00:36:32.148
00:46:00.257                : en:00:46:00.257
00:55:55.143                : en:00:55:55.143
01:07:01.893                : en:01:07:01.893
01:16:37.426                : en:01:16:37.426


picpicpicpicpic
Для увеличения картинки щелкните мышкой по превью

Этот торрент недоступен для скачивания без регистрации, однако доступен по публичной magnet-ссылке (источники с публичных трекеров). Перед использованием ссылки прочтите, пожалуйста Пользовательское соглашение, а также как можно дольше оставайтесь на раздаче! Для того, чтобы скачать сам торрент-файл (который видит больше источников), а также для того, чтобы поблагодарить релизера, вам необходимо зарегистрироваться. Если регистрироваться лень - вы можете также попробовать скачать релиз по нашим партнерским ссылкам ниже. Кроме того, зарегистрированным пользователям не показывается всплывающая реклама при скачивании.

[underverse.su].t74659.torrent
Трекер: Зарегистрирован   [ 30.11.2016 10:51 ]  

Статус: проверено (by makkol at 01.12.2016 13:22)
Поблагодарили: пока никто не поблагодарил...
Тип торрента: публичный - доступные источники с открытых трекеров: 
Размер: 5,46 GB (занимает 1,25 DVDR, для записи нужно 2 болванки DVDR/RW)
 
 
Похожие темы
Форум Тема Автор Торрент Отв. Посл. сооб.
Зарубежные мультфильмы Красная черепаха / The Red Turtle / La tortue rouge (Майкл Дадок де Уит) [2016 г., мультфильм, фэнтези, HDRip] makkol
37 | 1

0 | 642

11

30.11.2016 10:40


Яндекс.Метрика powered by Sphinx


В Н И М А Н И Е
Сайт не распространяет и не хранит электронные версии произведений, а лишь бесплатно и без коммерческой выгоды (не требуя взамен платы,
SMS и т.д.) предоставляет доступ к создаваемому пользователями каталогу ссылок на торрент-файлы, которые содержат только списки хеш-сумм.
Убедительная просьба с жалобами обращаться напрямую к пользователю, разместившему торрент файл.

Вверх