Loading...
Error

(Black Metal) While They Sleep - La Nausee (2016) [FLAC (Image+.CUE), lossless]

Статистика раздачи
Размер:  523 MB   |    Зарегистрирован:  2 года 1 месяц   |    Скачан:  1 раз

Полного источника не было: 1 год 11 месяцев

Сидов:  0  |  0 KB/s  ]   Личеров:  0  |  0 KB/s  ]

* - сиды/пиры с внешних источников

   
 
Автор Сообщение

Darkferse Пол:Жен

09-Дек-2016 10:33

While They Sleep - La Nausee

Жанр: Black Metal
Страна: Россия
Год выпуска: 2016
Источник: CD
Производитель: Symbol of Domination Prod. (SODP054), More Hate Productions (MHP 16-190)
Аудиокодек: FLAC
Тип рипа: Image+.CUE
Битрейт: lossless
Продолжительность: 01:03:13

Треклист:

01. In Harbor Extinguished Last Lantern (06:49)
02. The Rats in the Walls (06:55)
03. La Nausee (05:50)
04. Of Village (06:06)
05. Infinite Length in a Moment (06:30)
06. Hut in the Forest (05:09)
07. Hermaphrodite of Being (09:24)
08. Thy Temple (05:13)
09. Melencolia (07:48)
10. While They Sleep (03:32)
Exact Audio Copy V1.0 beta 3 from 29. August 2011

EAC extraction logfile from 25. November 2016, 19:08

While They Sleep / La Nausee

Used drive : Optiarc DVD RW AD-7260S Adapter: 1 ID: 1

Read mode : Secure
Utilize accurate stream : Yes
Defeat audio cache : Yes
Make use of C2 pointers : No

Read offset correction : 48
Overread into Lead-In and Lead-Out : No
Fill up missing offset samples with silence : Yes
Delete leading and trailing silent blocks : No
Null samples used in CRC calculations : Yes
Used interface : Native Win32 interface for Win NT & 2000

Used output format : Internal WAV Routines
Sample format : 44.100 Hz; 16 Bit; Stereo

TOC of the extracted CD

Track | Start | Length | Start sector | End sector
---------------------------------------------------------
1 | 0:00.00 | 6:48.49 | 0 | 30648
2 | 6:48.49 | 6:54.51 | 30649 | 61749
3 | 13:43.25 | 5:49.50 | 61750 | 87974
4 | 19:33.00 | 6:05.17 | 87975 | 115366
5 | 25:38.17 | 6:29.13 | 115367 | 144554
6 | 32:07.30 | 5:09.00 | 144555 | 167729
7 | 37:16.30 | 9:23.54 | 167730 | 210008
8 | 46:40.09 | 5:12.45 | 210009 | 233453
9 | 51:52.54 | 7:47.54 | 233454 | 268532
10 | 59:40.33 | 3:32.00 | 268533 | 284432

Range status and errors

Selected range

Filename C:\Мои документы\While They Sleep - 2016 - La Nausee.wav

Peak level 100.0 %
Extraction speed 1.6 X
Range quality 99.9 %
Test CRC 5703D67B
Copy CRC 5703D67B
Copy OK

No errors occurred

AccurateRip summary

Track 1 accurately ripped (confidence 1) [24431D0D] (AR v2)
Track 2 accurately ripped (confidence 1) [EBEF442C] (AR v2)
Track 3 accurately ripped (confidence 1) [164FDFEC] (AR v2)
Track 4 accurately ripped (confidence 1) [290889AA] (AR v2)
Track 5 accurately ripped (confidence 1) [C8BC63B4] (AR v2)
Track 6 accurately ripped (confidence 1) [3B118564] (AR v2)
Track 7 accurately ripped (confidence 1) [FFDDD87B] (AR v2)
Track 8 accurately ripped (confidence 1) [4E0FD2F9] (AR v2)
Track 9 accurately ripped (confidence 1) [D21575A6] (AR v2)
Track 10 accurately ripped (confidence 1) [0492546E] (AR v2)

All tracks accurately ripped

End of status report

---- CUETools DB Plugin V2.1.4

[CTDB TOCID: ns79wdTTN91qndQhxObvIajMiSw-] disk not present in database
Submit result: ns79wdTTN91qndQhxObvIajMiSw- has been uploaded

==== Log checksum FB2DEF39C3B4C3ECB0CA36BCFC2A62BF422A5CE7BD8CDCDC76A5836A9E10F165 ====
REM GENRE "Black Metal"
REM DATE 2016
REM DISCID 790ED00A
REM COMMENT "ExactAudioCopy v1.0b3"
PERFORMER "While They Sleep"
TITLE "La Nausee"
FILE "While They Sleep - 2016 - La Nausee.flac" WAVE
TRACK 01 AUDIO
TITLE "In Harbor Extinguished Last Lantern "
PERFORMER "While They Sleep"
INDEX 01 00:00:00
TRACK 02 AUDIO
TITLE "The Rats in the Walls "
PERFORMER "While They Sleep"
INDEX 01 06:48:49
TRACK 03 AUDIO
TITLE "La Nausee"
PERFORMER "While They Sleep"
INDEX 01 13:43:25
TRACK 04 AUDIO
TITLE "Of Village "
PERFORMER "While They Sleep"
INDEX 01 19:33:00
TRACK 05 AUDIO
TITLE "Infinite Length in a Moment "
PERFORMER "While They Sleep"
INDEX 01 25:38:17
TRACK 06 AUDIO
TITLE "Hut in the Forest "
PERFORMER "While They Sleep"
INDEX 01 32:07:30
TRACK 07 AUDIO
TITLE "Hermaphrodite of Being "
PERFORMER "While They Sleep"
INDEX 01 37:16:30
TRACK 08 AUDIO
TITLE "Thy Temple "
PERFORMER "While They Sleep"
INDEX 01 46:40:09
TRACK 09 AUDIO
TITLE "Melencolia "
PERFORMER "While They Sleep"
INDEX 01 51:52:54
TRACK 10 AUDIO
TITLE "While They Sleep "
PERFORMER "While They Sleep"
INDEX 01 59:40:33

Этот торрент недоступен для скачивания без регистрации, однако доступен по публичной magnet-ссылке (источники с публичных трекеров). Перед использованием ссылки прочтите, пожалуйста Пользовательское соглашение, а также как можно дольше оставайтесь на раздаче! Для того, чтобы скачать сам торрент-файл (который видит больше источников), а также для того, чтобы поблагодарить релизера, вам необходимо зарегистрироваться. Если регистрироваться лень - вы можете также попробовать скачать релиз по нашим партнерским ссылкам ниже. Кроме того, зарегистрированным пользователям не показывается всплывающая реклама при скачивании.

[underverse.su].t75068.torrent
Трекер: Зарегистрирован   [ 09.12.2016 10:33 ]  

Статус: проверено (by Бишеп at 10.12.2016 17:15)
Поблагодарили: 1 человек
Тип торрента: публичный - доступные источники с открытых трекеров: 
Размер: 523 MB (занимает 0,12 DVDR, для записи нужно 1 болванка DVDR/RW)
 
 
Похожие темы
Форум Тема Автор Торрент Отв. Посл. сооб.
Зарубежный Black, Death, Heavy, Thrash, Power, Folk, Gothic Metal (Black Metal, Dark Metal) Blaine Rohmer - Curse of the Rising Star (2016) [MP3, 320 kbps CBR] Darkferse
1 | 0

0 | 1037

1

09.12.2016 09:40

Зарубежный Black, Death, Heavy, Thrash, Power, Folk, Gothic Metal (Black Metal) Nargaroth - Era Of Threnody (2017) [MP3, 320 kbps CBR] Darkferse
17 | 0

0 | 763

2

30.05.2017 09:02

Зарубежный Black, Death, Heavy, Thrash, Power, Folk, Gothic Metal (Black Metal) Antaeus - Condemnation (2016) [MP3, 320 kbps CBR] Leta
2 | 0

0 | 791

4

13.11.2016 23:10

Зарубежный Black, Death, Heavy, Thrash, Power, Folk, Gothic Metal (Black Metal) Acrimonious - Sunyata (2012) [MP3, 320 kbps CBR] Jimmy
0 | 0

0 | 1457

2

12.12.2012 13:00

Зарубежный Black, Death, Heavy, Thrash, Power, Folk, Gothic Metal (Black Metal) Kyterion - Inferno I (2016) [MP3, 320 kbps CBR] Darkferse
2 | 0

0 | 800

1

01.01.2017 20:42

Зарубежный Black, Death, Heavy, Thrash, Power, Folk, Gothic Metal (Black Metal, Death Metal) Crest of Darkness - Welcome The Dead (2016) [MP3, 320 kbps CBR] Darkferse
1 | 1

0 | 811

3

01.01.2017 21:14

Зарубежный Black, Death, Heavy, Thrash, Power, Folk, Gothic Metal (Black Metal) Inferitvm - The War of the Witches (EP) (2016) [MP3, 320 kbps CBR] Darkferse
1 | 0

0 | 690

1

08.01.2017 20:14

Зарубежный Black, Death, Heavy, Thrash, Power, Folk, Gothic Metal (Black Metal) Malignance - Architects Of Oblivion (2017) [MP3, 320 kbps CBR] Darkferse
1 | 0

0 | 339

2

15.03.2017 09:40

Зарубежный Black, Death, Heavy, Thrash, Power, Folk, Gothic Metal (Black Metal, Symphonic Metal) Dimmu Borgir - Forces Of The Northern Night (Live, 2CD) (2017) [MP3, 320 kbps CBR] Darkferse
3 | 0

0 | 945

3

27.04.2017 08:49

Зарубежный Black, Death, Heavy, Thrash, Power, Folk, Gothic Metal (Black Metal, Pagan Metal) Havukruunu - Kelle Surut Soi (2017) [MP3, 320 kbps CBR] Darkferse
9 | 4

0 | 486

3

30.04.2017 17:48


Яндекс.Метрика powered by Sphinx


В Н И М А Н И Е
Сайт не распространяет и не хранит электронные версии произведений, а лишь бесплатно и без коммерческой выгоды (не требуя взамен платы,
SMS и т.д.) предоставляет доступ к создаваемому пользователями каталогу ссылок на торрент-файлы, которые содержат только списки хеш-сумм.
Убедительная просьба с жалобами обращаться напрямую к пользователю, разместившему торрент файл.

Вверх